• -
  • -
  • done
Anonymous Downloadondemand_video
  • Quicksand (Season 1) WEB-DLRip NewStudio
  • 4.1 GB
  • wentworth_miller
  • Quicksand Season WEB DLRip NewStudio
  • Зарубежные сериалы
Warning! Use a VPN When Downloading Torrents!
Your IP Address is ,
Your Internet Provider can see when you download torrents! Hide your IP ADDRESS with a VPN
We strongly recommend Trust.Zone VPN to hide your torrenting. It's FREE!
DOWNLOAD VPN
69%

Quicksand: Season 1(2019)

  • 1
  • Drama Crime
  • After a tragedy at a school sends shock waves through a wealthy Stockholm suburb, a seemingly well-adjusted teen finds herself on trial for murder.

    expand_more
    Swedish
    • 1
    • 2
    • 3
    • 4
    • 5
    • 6

    Description

    Зыбучий песок | Quicksand


    image

    Год выпуска : 2019

    Страна : image Швеция

    Жанр : Драма

    Продолжительность : ~ 00:45:00


    Перевод : Профессиональный (многоголосый закадровый) |

    NewStudio


    Режиссёр : Пер-Олав Соренсен


    В ролях : Ханна Арден, Феликс Сандман, Хелена аф Сандеберг, Свен Воллтер, Шанти Рони, Реубен Сальмандер, Самуэль Фрёлер, Мария Сундбом, Анна Бьёрк, Анита Олатунжи и др.


    Описание : Массовая стрельба произошла в одной из элитных шведских школ. В этом преступлении обвиняют Майю. На суде все пытаются понять её мотивы и разобраться, кто же она — убийца или жертва?


    imageimageimageimage image


    Ссылка на предыдущие и альтернативные раздачи


    Качество : WEB-DLRip

    Формат : AVI

    Видео : XviD, 704x368 (1,897), 25,000 кадров/сек, 1600 Кбит/сек

    Аудио Rus : image AC3, 48,0 kHz, 2 ch, 192 Кбит/сек |

    NewStudio

    Аудио Swe : image AC3, 48,0 kHz, 2 ch, 192 Кбит/сек

    Субтитры : Русские (Forced, Full |Netflix|, английские (SDH)

    Реклама :

    Отсутствует


    ✘ Релиз ✘

    • Спасибо Keedof за исходник


    Список серий

    1. Maja
    1. Custody
    1. The Funeral
    1. The Reconstruction
    1. The Trial
    1. The Witnesses

    MediaInfo

    `Общее
    Полное имя : E:Quicksand (Season 1) WEB-DLRip NewStudioQuicksand.S01E01.WEB-DLRip.RGzsRutracker.[Wentworth_Miller].avi
    Формат : AVI
    Формат/Информация : Audio Video Interleave
    Размер файла : 649 Мбайт
    Продолжительность : 45 м. 26 с.
    Общий поток : 1998 Кбит/сек
    Программа кодирования : VirtualDubMod 1.5.10.3 | www.virtualdub-fr.org || (build 2550/release)
    Библиотека кодирования : VirtualDubMod build 2550/release

    Видео
    Идентификатор : 0
    Формат : MPEG-4 Visual
    Профиль формата : Advanced [email protected]
    Настройки формата : BVOP1
    Параметр BVOP формата : 1
    Параметр QPel формата : Нет
    Параметр GMC формата : Без точки перехода
    Параметр матрицы формата : Default (MPEG)
    Идентификатор кодека : XVID
    Идентификатор кодека/Подсказка : XviD
    Продолжительность : 45 м. 26 с.
    Битрейт : 1599 Кбит/сек
    Ширина : 704 пикселя
    Высота : 368 пикселей
    Соотношение сторон : 1,897
    Частота кадров : 25,000 кадров/сек
    Цветовое пространство : YUV
    Субдискретизация насыщенности : 4:2:0
    Битовая глубина : 8 бит
    Тип развёртки : Прогрессивная
    Метод сжатия : С потерями
    Бит/(Пиксели*Кадры) : 0.247
    Размер потока : 520 Мбайт (80%)
    Библиотека кодирования : XviD 67

    Аудио #1
    Идентификатор : 1
    Формат : AC-3
    Формат/Информация : Audio Coding 3
    Коммерческое название : Dolby Digital
    Идентификатор кодека : 2000
    Продолжительность : 45 м. 26 с.
    Вид битрейта : Постоянный
    Битрейт : 192 Кбит/сек
    Каналы : 2 канала
    ChannelLayout : L R
    Частота : 48,0 КГц
    Частота кадров : 31,250 кадров/сек (1536 SPF)
    Битовая глубина : 16 бит
    Метод сжатия : С потерями
    Размер потока : 62,4 Мбайт (10%)
    Выравнивание : Разделение по промежуткам
    Продолжительность промежутка : 40 мс. (1,00 видеокадр)
    Время предзагрузки промежутка : 500 мс.
    ServiceKind/String : Complete Main

    Аудио #2
    Идентификатор : 2
    Формат : AC-3
    Формат/Информация : Audio Coding 3
    Коммерческое название : Dolby Digital
    Идентификатор кодека : 2000
    Продолжительность : 45 м. 26 с.
    Вид битрейта : Постоянный
    Битрейт : 192 Кбит/сек
    Каналы : 2 канала
    ChannelLayout : L R
    Частота : 48,0 КГц
    Частота кадров : 31,250 кадров/сек (1536 SPF)
    Битовая глубина : 16 бит
    Метод сжатия : С потерями
    Размер потока : 62,4 Мбайт (10%)
    Выравнивание : Разделение по промежуткам
    Продолжительность промежутка : 40 мс. (1,00 видеокадр)
    Время предзагрузки промежутка : 500 мс.
    ServiceKind/String : Complete Main `


    Скриншоты

    imageimageimageimage


    Релиз группы

    :

    image


    More at ibit.to
    And ibit.uno
    And ibit.ws

    Reviews

    Comments

    3 months ago

    Просьба ко всем.При перезаливе раздач, имеющих в названии файлов надпись «RGzsRutracker», на другие трекеры / сайты, обязательно размещать в оформлении этот баннер: Всем спасибо за понимание. Приятного просмотра.

    Files

    Quicksand (Season 1) WEB-DLRip NewStudioEngQuicksand.S01E01.WEB-DLRip.RGzsRutracker.[Wentworth_Miller].srt 48 kB
    Quicksand (Season 1) WEB-DLRip NewStudioEngQuicksand.S01E02.WEB-DLRip.RGzsRutracker.[Wentworth_Miller].srt 51 kB
    Quicksand (Season 1) WEB-DLRip NewStudioEngQuicksand.S01E03.WEB-DLRip.RGzsRutracker.[Wentworth_Miller].srt 46 kB
    Quicksand (Season 1) WEB-DLRip NewStudioEngQuicksand.S01E04.WEB-DLRip.RGzsRutracker.[Wentworth_Miller].srt 36 kB
    Quicksand (Season 1) WEB-DLRip NewStudioEngQuicksand.S01E05.WEB-DLRip.RGzsRutracker.[Wentworth_Miller].srt 50 kB
    Quicksand (Season 1) WEB-DLRip NewStudioEngQuicksand.S01E06.WEB-DLRip.RGzsRutracker.[Wentworth_Miller].srt 47 kB
    Quicksand (Season 1) WEB-DLRip NewStudioRusQuicksand.S01E01.WEB-DLRip.RGzsRutracker.[Wentworth_Miller].srt 58 kB
    Quicksand (Season 1) WEB-DLRip NewStudioRusQuicksand.S01E02.WEB-DLRip.RGzsRutracker.[Wentworth_Miller].srt 61 kB
    Quicksand (Season 1) WEB-DLRip NewStudioRusQuicksand.S01E03.WEB-DLRip.RGzsRutracker.[Wentworth_Miller].srt 56 kB
    Quicksand (Season 1) WEB-DLRip NewStudioRusQuicksand.S01E04.WEB-DLRip.RGzsRutracker.[Wentworth_Miller].srt 45 kB
    Quicksand (Season 1) WEB-DLRip NewStudioRusQuicksand.S01E05.WEB-DLRip.RGzsRutracker.[Wentworth_Miller].srt 61 kB
    Quicksand (Season 1) WEB-DLRip NewStudioRusQuicksand.S01E06.WEB-DLRip.RGzsRutracker.[Wentworth_Miller].srt 59 kB
    Quicksand (Season 1) WEB-DLRip NewStudioQuicksand.S01E01.WEB-DLRip.RGzsRutracker.[Wentworth_Miller].avi 681 MB
    Quicksand (Season 1) WEB-DLRip NewStudioQuicksand.S01E01.WEB-DLRip.RGzsRutracker.[Wentworth_Miller].srt 405 B
    Quicksand (Season 1) WEB-DLRip NewStudioQuicksand.S01E02.WEB-DLRip.RGzsRutracker.[Wentworth_Miller].avi 708 MB
    Quicksand (Season 1) WEB-DLRip NewStudioQuicksand.S01E02.WEB-DLRip.RGzsRutracker.[Wentworth_Miller].srt 198 B
    Quicksand (Season 1) WEB-DLRip NewStudioQuicksand.S01E03.WEB-DLRip.RGzsRutracker.[Wentworth_Miller].avi 680 MB
    Quicksand (Season 1) WEB-DLRip NewStudioQuicksand.S01E03.WEB-DLRip.RGzsRutracker.[Wentworth_Miller].srt 170 B
    Quicksand (Season 1) WEB-DLRip NewStudioQuicksand.S01E04.WEB-DLRip.RGzsRutracker.[Wentworth_Miller].avi 621 MB
    Quicksand (Season 1) WEB-DLRip NewStudioQuicksand.S01E04.WEB-DLRip.RGzsRutracker.[Wentworth_Miller].srt 156 B
    Quicksand (Season 1) WEB-DLRip NewStudioQuicksand.S01E05.WEB-DLRip.RGzsRutracker.[Wentworth_Miller].avi 737 MB
    Quicksand (Season 1) WEB-DLRip NewStudioQuicksand.S01E05.WEB-DLRip.RGzsRutracker.[Wentworth_Miller].srt 305 B
    Quicksand (Season 1) WEB-DLRip NewStudioQuicksand.S01E06.WEB-DLRip.RGzsRutracker.[Wentworth_Miller].avi 712 MB
    Quicksand (Season 1) WEB-DLRip NewStudioQuicksand.S01E06.WEB-DLRip.RGzsRutracker.[Wentworth_Miller].srt 150 B

    Stream

    Downloading Seeding Quicksand (Season 1) WEB-DLRip NewStudio from to 0 peers.
    of
    0 b/s / ↗0 b/s