• 0
  • 0
Anonymous Download
Warning! Use a VPN When Downloading Torrents!
Your IP Address is ,
Your Internet Provider can see when you download torrents! Hide your IP ADDRESS with a VPN
We strongly recommend Trust.Zone VPN to hide your torrenting. It's FREE!
DOWNLOAD VPN

Description

http://i.imgur.com/ai4RR7L.jpg

[url]http://www.filmweb.pl/film/Piper-2016-768113[/url]
[url]http://www.imdb.com/title/tt5613056/[/url]

reżyseria: Alan Barillaro
scenariusz: Alan Barillaro
gatunek: Animacja,Krótkometrażowy
produkcja: USA
premiera: 16-06-2016
czas: 6mn 5s

opis:

A mother bird tries to teach her little one how
to find food by herself. In the process, she encounters
a traumatic experience that she must overcome in order to survive.

Matka małego ptaszka próbuje nauczyć swoje maleństwo jak znaleźć pożywienie samemu.
W tym procesie, spotyka traumatyczne doświadczenie, które musi sam pokonać, aby przetrwać.

[url]image

[/url]
[url]image

[/url]
[url]image

[/url]

obsada: Piper

dane techniczne:

Piper (2016)-alE13).mkv
Format : Matroska
Format version : Version 4 / Version 2
File size : 930 MiB
Duration
: 6 min 5 s
Overall bit rate : 21.3 Mb/s
Movie name : Piper (2016)-alE13
Encoded date : UTC 2016-11-10 09:15:44
Writing application : mkvmerge v8.1.0 ('Psychedelic Postcard') 64bit
Writing library : libebml v1.3.1 + libmatroska v1.4.2
Attachments
: cower2.jpg

Video
ID : 1
Format : HEVC
Format/Info : High Efficiency Video Coding
Codec ID : V_MPEGH/ISO/HEVC
Duration : 6 min 5 s
Bit rate : 20.7 Mb/s
Width
: 3 840 pixels
Height : 2 160 pixels
Display aspect ratio : 16:9
Frame rate mode : Constant
Frame rate : 23.976 (24000/1001) FPS
Bits/(Pixel*Frame)
: 0.104
Stream size : 902 MiB (97%)
Title : Piper (2016)-alE13
Default : Yes
Forced : No

Audio
ID
: 2
Format : AC-3
Format/Info : Audio Coding 3
Mode extension
: CM (complete main)
Format settings, Endianness : Big
Codec ID : AAC3
Duration : 6 min 5 s
Bit rate mode : Constant
Bit rate : 640 kb/s
Channel(s) : 6 channels
Channel positions : Front: L C R, Side: L R, LFE
Sampling rate : 48.0 kHz
Frame rate : 31.250 FPS (1536 spf)
Bit depth : 16 bits
Compression mode : Lossy
Stream size : 27.9 MiB (3%)
Title : Piper (2016)-alE13
AC3
Language : English
Default
: Yes
Forced : No


More at ibit.to
And ibit.uno
And ibit.ws

Comments

Files

Piper (2016)-alE13)/Piper (2016)alE13) -
Piper (2016)-alE13)/1.jpg 5.0 MB
Piper (2016)-alE13)/cower2.jpg 244 kB
Piper (2016)-alE13)/Nostalgie11.jpg 186 kB
Piper (2016)-alE13)/Torrent downloaded from alE13 torrents at BTScene.org.txt 120 B
Piper (2016)-alE13)/Torrent downloaded from alE13 at torrents at ahashare.com.txt 98 B
Piper (2016)-alE13)/torrent downoloadet from auratorrent.txt 93 B
Piper (2016)-alE13)/torrent downoloadet from torrentyorg.txt 93 B
Piper (2016)-alE13)/Torrent Downloaded from Limetorrents.txt 49 B
Piper (2016)-alE13)/Torrent downloaded from demonoid.pw.txt 46 B
Piper (2016)-alE13)/www.Limetorrents.cc 45 B
Piper (2016)-alE13)/Piper (2016)alE13).mkv 930 MB
Piper (2016)-alE13)/txt.jpg 58 kB
Piper (2016)-alE13)/poster1.jpg 25 kB

Stream

Downloading Seeding Piper (2016)[BRRip 2160p x265 HEVC by alE13 AC3][Eng] from to 0 peers.
of
0 b/s / ↗0 b/s