• 0
  • 0
  • done
Anonymous Downloadondemand_video
  • Piper.2016.BDRemux.1080p.mkv
  • 1.3 GB
  • flaSI-I
  • Piper 2016 BDRemux 1080p mkv
  • Мультфильмы
Warning! Use a VPN When Downloading Torrents!
Your IP Address is ,
Your Internet Provider can see when you download torrents! Hide your IP ADDRESS with a VPN
We strongly recommend Trust.Zone VPN to hide your torrenting. It's FREE!
DOWNLOAD VPN
82%

Piper (2016)

  • Family Animation
  • A mother bird tries to teach her little one how to find food by herself. In the process, she encounters a traumatic experience that she must overcome in order to survive.

    expand_more
    English

    Description

    Песочник

    Piper

    image

    Страна : США

    Студия : Disney Pixar Animation Studios

    Жанр : мультфильм, короткометражка

    Год выпуска : 2016

    Продолжительность : 00:06:05


    Перевод : Не требуется

    Субтитры : английские [SDH]

    Оригинальная аудиодорожка : английский [Music by Adrian Belew]


    Режиссер : Алан Барилларо / Alan Barillaro


    Описание : Выполненный на высоком уровне, мультфильм рассказывает историю о недавно вылупившемся птенце бекаса, который с радостью и удивлением открывает мир вокруг себя: радостно бежит за родителями, играет с каплями дождя и добывает пищу. В полной версии зрители откроют вместе с забавным бекасиком извечную истину - делать первые самостоятельные шаги без помощи родителей совсем непросто.

    imageimageimage

    Note : This is a Pixar short that's included on the Finding Dory BD

    Тип релиза : BDRemux 1080p

    Контейнер : MKV

    Видео : MPEG-4 AVC / NTSC 16:9 / 1920x1080 (1,78:1) / 23790 kbps / 23,976 fps / 0.479 bit/pixel / [email protected]

    Аудио : English / DTS-HD Master Audio / 7.1 Ch / 48 kHz / 4737 kbps / 24-bit (DTS Core: 5.1 / 48 kHz / 1509 kbps / 24-bit)

    Music by Adrian Belew

    Формат субтитров : softsub (SRT)

    Навигация по главам : есть

    Сэмпл

    https://www.sendspace.com/file/ptwrat

    Субтитры ENG

    Код:

    1
    00:00:21,439 --> 00:00:22,857
    (TWITTERING)

    2
    00:00:49,467 --> 00:00:50,509
    (COOING)

    3
    00:00:50,593 --> 00:00:51,928
    (TWEETS)

    4
    00:00:58,142 --> 00:00:59,143
    (CHIRPING)

    5
    00:01:00,853 --> 00:01:03,230
    (BOTH TWITTERING)

    6
    00:01:12,740 --> 00:01:13,783
    (COOING)

    7
    00:01:14,492 --> 00:01:15,868
    (CHIRPING)

    8
    00:01:23,668 --> 00:01:24,961
    (TWITTERING)

    9
    00:01:29,507 --> 00:01:30,508
    (CHIRPS)

    10
    00:02:13,342 --> 00:02:14,343
    (COOING)

    11
    00:02:15,553 --> 00:02:16,554
    (TWITTERING)

    12
    00:02:27,398 --> 00:02:28,399
    (CHIRPS)

    13
    00:02:32,820 --> 00:02:33,821
    (TWEETS)

    14
    00:02:37,908 --> 00:02:39,326
    (RUMBLING)

    15
    00:02:55,593 --> 00:02:56,886
    (FRANTIC TWITTERING)

    16
    00:03:35,549 --> 00:03:36,926
    (TWITTERING)

    17
    00:04:28,978 --> 00:04:30,646
    (CHIRPING)

    18
    00:04:35,943 --> 00:04:37,987
    (TWITTERING)

    19
    00:05:13,564 --> 00:05:14,940
    (TWITTERING)

    20
    00:05:16,108 --> 00:05:17,443
    (CHIRPING)

    21
    00:05:56,523 --> 00:05:58,108
    (TWEETING SOFTLY)

    MediaInfo

    Код:

    Общее
    Уникальный идентификатор                 : 229334699559530323115922665761636206360 (0xAC8841AB1704DBD880D242E9E889C718)
    Полное имя                               : N:BDRemux 1080pPiper.2016.BDRemux.1080p.mkv
    Формат                                   : Matroska
    Версия формата                           : Version 4 / Version 2
    Размер файла                             : 1,21 Гбайт
    Продолжительность                        : 6 м. 5 с.
    Режим общего битрейта                    : Переменный
    Общий поток                              : 28,5 Мбит/сек
    Название фильма                          : Release for RuTracker © flaSI-I
    Дата кодирования                         : UTC 2016-10-27 15:27:12
    Программа кодирования                    : mkvmerge v9.5.0 ('Quiet Fire') 64bit
    Библиотека кодирования                   : libebml v1.3.4 + libmatroska v1.4.5

    Видео
    Идентификатор                            : 1
    Формат                                   : AVC
    Формат/Информация                        : Advanced Video Codec
    Профиль формата                          : [email protected]
    Параметр CABAC формата                   : Да
    Параметр ReFrames формата                : 4 кадра
    Идентификатор кодека                     : V_MPEG4/ISO/AVC
    Продолжительность                        : 6 м. 5 с.
    Вид битрейта                             : Переменный
    Битрейт                                  : 23,8 Мбит/сек
    Максимальный битрейт                     : 32,0 Мбит/сек
    Ширина                                   : 1920 пикселей
    Высота                                   : 1080 пикселей
    Соотношение сторон                       : 16:9
    Режим частоты кадров                     : Постоянный
    Частота кадров                           : 23,976 (24000/1001) кадра/сек
    Цветовое пространство                    : YUV
    Субдискретизация насыщенности            : 4:2:0
    Битовая глубина                          : 8 бит
    Тип развёртки                            : Прогрессивная
    Бит/(Пиксели*Кадры)                      : 0.479
    Размер потока                            : 1,01 Гбайт (83%)
    Язык                                     : English
    Default                                  : Да
    Forced                                   : Нет

    Аудио
    Идентификатор                            : 2
    Формат                                   : DTS
    Формат/Информация                        : Digital Theater Systems
    Профиль формата                          : MA / Core
    Режим                                    : 16
    Параметр Endianness формата              : Big
    Идентификатор кодека                     : A_DTS
    Продолжительность                        : 6 м. 5 с.
    Вид битрейта                             : Переменный / Постоянный
    Битрейт                                  : 4737 Кбит/сек / 1509 Кбит/сек
    Каналы                                   : 8 каналов / 6 каналов
    Расположение каналов                     : Front: L C R, Side: L R, Back: L R, LFE / Front: L C R, Side: L R, LFE
    Частота                                  : 48,0 КГц
    Частота кадров                           : 93,750 кадра/сек (512 spf)
    Битовая глубина                          : 24 бит
    Метод сжатия                             : Без потерь / Lossy
    Размер потока                            : 207 Мбайт (17%)
    Заголовок                                : Original
    Язык                                     : English
    Default                                  : Да
    Forced                                   : Нет

    Текст
    Идентификатор                            : 3
    Формат                                   : UTF-8
    Идентификатор кодека                     : S_TEXT/UTF8
    Идентификатор кодека/Информация          : UTF-8 Plain Text
    Продолжительность                        : 5 м. 36 с.
    Битрейт                                  : 5 бит/сек
    Count of elements                        : 21
    Размер потока                            : 232 байт (0%)
    Заголовок                                : Original | SDH
    Язык                                     : English
    Default                                  : Нет
    Forced                                   : Нет

    Меню
    00:00:00.000                             : en:Chapter 1
    00:01:34.845                             : en:Chapter 2
    00:02:10.339                             : en:Chapter 3
    00:04:02.033                             : en:Chapter 4
    00:05:16.066                             : en:Chapter 5

    Скриншоты

    image


    imageimageimage
    imageimageimage


    More at ibit.to
    And ibit.uno
    And ibit.ws

    Reviews

    Comments

    Files

    Piper.2016.BDRemux.1080p.mkv 1.3 GB

    Stream

    Downloading Seeding Piper.2016.BDRemux.1080p.mkv from to 0 peers.
    of
    0 b/s / ↗0 b/s