• 1
  • 0
  • done
Anonymous Downloadondemand_video
  • Piper.2016.BDRip 720p.mkv
  • 213 MB
  • -Azureus-
  • Piper
  • Мультфильмы
Warning! Use a VPN When Downloading Torrents!
Your IP Address is ,
Your Internet Provider can see when you download torrents! Hide your IP ADDRESS with a VPN
We strongly recommend Trust.Zone VPN to hide your torrenting. It's FREE!
DOWNLOAD VPN
82%

Piper (2016)

  • Family Animation
  • A mother bird tries to teach her little one how to find food by herself. In the process, she encounters a traumatic experience that she must overcome in order to survive.

    expand_more
    English

    Description

    Песочник

    Piper

    image

    Год выпуска

    : 2016

    Страна

    : США

    Жанр

    : короткометражный анимационный фильм

    Продолжительность

    : image 00:06:05

    Перевод

    : image

    не требуется

    русские субтитры

    : нет


    Режиссёр

    : Алан Барилларо : Alan Barillaro


    Описание

    : Выполненный на высоком уровне, мультфильм рассказывает историю о недавно вылупившемся птенце бекаса, который с радостью и удивлением открывает мир вокруг себя: радостно бежит за родителями, играет с каплями дождя и добывает пищу. В полной версии зрители откроют вместе с забавным бекасиком извечную истину - делать первые самостоятельные шаги без помощи родителей совсем непросто.


    image image релиз: image


    Качество

    :

    BDRip 720p

    Формат

    : MKV

    Видео кодек

    : AVC

    Аудио кодек

    : AC3

    Видео

    :

    1280x720

    , 23,976 fps, ~4252 kbps avg, 0.192 bit/pixel

    Аудио

    : 48 kHz, AC3 Dolby Digital, 3/2 (L,C,R,l,r) + LFE ch, ~640 kbps avg

    субтитры

    : английские image image image image image

    MediaInfo

    Общее
    Уникальный идентификатор : 181737596440629926273628772501932804177 (0x88B9634D741B345897B1A09573A10851)
    Полное имя : D:МультыPiper.2016.BDRip 720p.mkv
    Формат : Matroska
    Версия формата : Version 4 / Version 2
    Размер файла : 213 Мбайт
    Продолжительность : 6 м. 5 с.
    Общий поток : 4894 Кбит/сек
    Название фильма : Piper.2016.BDRip 720p -Azureus-
    Дата кодирования : UTC 2017-01-19 10:23:03
    Программа кодирования : mkvmerge v9.4.0 ('Knurl') 64bit
    Библиотека кодирования : libebml v1.3.4 + libmatroska v1.4.5

    Видео
    Идентификатор : 1
    Формат : AVC
    Формат/Информация : Advanced Video Codec
    Профиль формата : [email protected]
    Параметр CABAC формата : Да
    Параметр ReFrames формата : 9 кадров
    Идентификатор кодека : VMPEG4/ISO/AVC
    Продолжительность : 6 м. 5 с.
    Битрейт : 4252 Кбит/сек
    Ширина : 1280 пикселей
    Высота : 720 пикселей
    Соотношение сторон : 16:9
    Режим частоты кадров : Постоянный
    Частота кадров : 23,976 (24000/1001) кадра/сек
    Цветовое пространство : YUV
    Субдискретизация насыщенности : 4:2:0
    Битовая глубина : 8 бит
    Тип развёртки : Прогрессивная
    Бит/(Пиксели*Кадры) : 0.192
    Размер потока : 185 Мбайт (87%)
    Библиотека кодирования : x264 core 148 r2744kMod b97ae06
    Настройки программы : cabac=1 / ref=9 / deblock=1:-2:-1 / analyse=0x3:0x133 / me=umh / subme=11 / psy=1 / fade
    compensate=0.00 / psyrd=0.60:0.00 / mixedref=1 / merange=32 / chromame=1 / trellis=2 / 8x8dct=1 / cqm=0 / deadzone=21,11 / fastpskip=0 / chromaqpoffset=-2 / threads=6 / lookaheadthreads=1 / slicedthreads=0 / nr=0 / decimate=1 / interlaced=0 / bluraycompat=0 / constrainedintra=0 / bframes=16 / bpyramid=2 / badapt=2 / bbias=0 / direct=3 / weightb=1 / opengop=0 / weightp=2 / keyint=250 / keyintmin=23 / scenecut=40 / intrarefresh=0 / rclookahead=70 / rc=crf / mbtree=0 / crf=18.0000 / qcomp=0.60 / qpmin=0 / qpmax=69 / qpstep=4 / vbvmaxrate=50000 / vbvbufsize=62500 / crfmax=0.0 / nalhrd=none / filler=0 / ipratio=1.40 / pbratio=1.30 / aq=3:1.00
    Default : Да
    Forced : Нет
    Цветовой диапазон : Limited
    Основные цвета : BT.709
    Характеристики трансфера : BT.709
    Коэффициенты матрицы : BT.709

    Аудио
    Идентификатор : 2
    Формат : AC-3
    Формат/Информация : Audio Coding 3
    Расширение режима : CM (complete main)
    Параметр Endianness формата : Big
    Идентификатор кодека : A_AC3
    Продолжительность : 6 м. 5 с.
    Вид битрейта : Постоянный
    Битрейт : 640 Кбит/сек
    Каналы : 6 каналов
    Расположение каналов : Front: L C R, Side: L R, LFE
    Частота : 48,0 КГц
    Частота кадров : 31,250 кадров/сек (1536 spf)
    Метод сжатия : С потерями
    Размер потока : 27,9 Мбайт (13%)
    Default : Да
    Forced : Нет

    Текст
    Идентификатор : 3
    Формат : UTF-8
    Идентификатор кодека : S_TEXT/UTF8
    Идентификатор кодека/Информация : UTF-8 Plain Text
    Продолжительность : 5 м. 36 с.
    Битрейт : 5 бит/сек
    Count of elements : 21
    Размер потока : 232 байт (0%)
    Заголовок : Eng
    Язык : English
    Default : Нет
    Forced : Нет


    More at ibit.to
    And ibit.uno
    And ibit.ws

    Reviews

    Comments

    2 years ago

    Изумительно! Благодарю за удовольствие и качество картинки!

    Files

    Piper.2016.BDRip 720p.mkv 213 MB

    Stream

    Downloading Seeding Piper.2016.BDRip 720p.mkv from to 0 peers.
    of
    0 b/s / ↗0 b/s