• 1
  • -
  • done
  • Pink Floyd
  • 9.6 GB
  • slayko
  • Pink Floyd
  • Hi-Res stereo и многоканальная

Description

image

The Later Years 1987 - 2019

(Deluxe Edition)

image

image

image

image

Формат записи/Источник записи : [TR24][BR]

Год издания/переиздания : 1987-2019

Издатель : Pink Floyd Records

Издание : Deluxe Edition

Жанр : Progressive Rock

Время : 02:31:54

Сканы : Front

image

image

A Momentary Lapse Of Reason, Remixed & Updated

[00:51:10]

  1. Signs of Life
  2. Learning to Fly
  3. The Dogs of War
  4. One Slip
  5. On the Turning Away
  6. Yet Another Movie
  7. Round and Around
  8. A New Machine (Part 1)
  9. Terminal Frost
  10. A New Machine (Part 2)
  11. Sorrow
    image

The Division Bell 2014 Remix

[01:06:31]

  1. Cluster One
  2. What Do You Want From Me
  3. Poles Apart
  4. Marooned
  5. A Great Day For Freedom
  6. Wearing The Inside Out
  7. Take It Back
  8. Coming Back To Life
  9. Keep Talking
  10. Lost For Words
  11. High Hopes
    image

Unreleased Studio Recordings - The Division Bell Sessions

[00:34:13]

  1. Blues 1
  2. Slippery Guitar
  3. Rick's Theme
  4. David's Blues
  5. Marooned Jam
  6. Nervana
  7. High Hopes (Early Version)

image

Тип рипа : tracks

Разрядность : 24/96

Контейнер : FLAC (*.flac)

Формат : WAV (flac.ape.wv)

Количество каналов : 5.1, 2.0

image

Спасибо

image

Источник

[BR][OF] Pink Floyd - The Later Years 1987 - 2019 (Deluxe edition) (BD Audio) (Prog Rock, Alternative Rock)

Музыку создавали

Alto Saxophone, Soprano Saxophone – Tom Scott
Backing Vocals – Carmen Twillie, Darlene Koldenhaven, Donnie Gerrard, Phyllis St. James
Bass Guitar, Chapman Stick – Tony Levin
Drums – Carmine Appice, Jim Keltner
Electric & Acoustic Drums, Sound Effects – Nick Mason
Guitar – Michael Landau
Guitar, Vocals, Keyboards, Sequencer – David Gilmour
Keyboards – Jon Carin
Keyboards, Percussion, Sequencer – Bob Ezrin
Hammond Organ – Bill Payne
Percussion – Steve Forman
Piano, Vocals, Kurzweil Keyboards, Hammond Organ – Richard Wright
Producer – Bob Ezrin, David Gilmour
Saxophone – John Halliwell
Spherical Sound – Ken Caillats, Sarah Bruce, Tom Jones
Synthesizer – Pat Leonard
General Technical & Musical Instrument Supervision – Phil Taylor
Tenor Saxophone – Scott Page

Лохи проверки качества

A Momentary Lapse Of Reason, Remixed & Updated (5.1)

`foobar2000 1.3.10 / Dynamic Range Meter 1.1.1
log date: 2020-01-14 14:26:09


Analyzed: Pink Floyd / A Momentary Lapse Of Reason (Mixes In 5.1)
DR Peak RMS Duration Track

DR13 -1.92 dB -23.60 dB 4:23 01-Signs Of Life
DR14 -0.31 dB -17.09 dB 4:53 02-Learning To Fly
DR12 -0.31 dB -15.72 dB 6:04 03-The Dogs Of War
DR12 -0.31 dB -16.43 dB 5:11 04-One Slip
DR12 -0.31 dB -15.74 dB 5:42 05-On The Turning Away
DR13 -0.31 dB -16.74 dB 6:16 06-Yet Another Movie
DR12 -3.55 dB -23.46 dB 1:12 07-Round And Around
DR10 -7.34 dB -27.08 dB 1:46 08-A New Machine (Part 1)
DR13 -0.31 dB -19.81 dB 6:17 09-Terminal Frost
DR9 -9.02 dB -27.85 dB 0:39 10-A New Machine (Part 2)

DR11 -0.31 dB -14.48 dB 8:46 11-Sorrow

Number of tracks: 11
Official DR value: DR12

Samplerate: 96000 Hz
Channels: 6
Bits per sample: 24
Bitrate: 6531 kbps
Codec: FLAC
================================================================================ `

A Momentary Lapse Of Reason, Remixed & Updated (2.0)

`foobar2000 1.3.10 / Dynamic Range Meter 1.1.1
log date: 2020-01-14 15:03:22


Analyzed: Pink Floyd / A Momentary Lapse Of Reason
DR Peak RMS Duration Track

DR14 -0.76 dB -19.31 dB 4:23 01-Signs Of Life
DR9 -0.31 dB -12.25 dB 4:53 02-Learning To Fly
DR8 -0.30 dB -10.97 dB 6:04 03-The Dogs Of War
DR10 -0.31 dB -12.16 dB 5:11 04-One Slip
DR8 -0.31 dB -11.47 dB 5:42 05-On The Turning Away
DR9 -0.31 dB -11.75 dB 6:16 06-Yet Another Movie
DR10 -2.65 dB -19.36 dB 1:12 07-Round And Around
DR12 -5.44 dB -22.32 dB 1:46 08-A New Machine (Part 1)
DR11 -0.31 dB -14.47 dB 6:17 09-Terminal Frost
DR11 -5.82 dB -22.41 dB 0:39 10-A New Machine (Part 2)

DR8 -0.31 dB -10.07 dB 8:46 11-Sorrow

Number of tracks: 11
Official DR value: DR10

Samplerate: 96000 Hz
Channels: 2
Bits per sample: 24
Bitrate: 2614 kbps
Codec: FLAC
================================================================================ `

The Division Bell 2014 Remix

foobar2000 1.3.10 / Dynamic Range Meter 1.1.1
log date: 2020-01-14 14:55:17


Analyzed: Pink Floyd / The Division Bell (2014 5.1 Remix)


DR Peak RMS Duration Track


DR12 -1.60 dB -25.77 dB 6:00 01-Cluster One
DR13 -0.04 dB -17.73 dB 4:14 02-What Do You Want From Me
DR13 -0.08 dB -19.25 dB 7:12 03-Poles Apart
DR13 -0.18 dB -18.88 dB 5:29 04-Marooned
DR12 0.00 dB -19.44 dB 4:20 05-A Great Day For Freedom
DR13 0.00 dB -19.21 dB 6:50 06-Wearing The Inside Out
DR12 -0.28 dB -18.77 dB 6:13 07-Take It Back
DR12 -0.03 dB -20.02 dB 6:20 08-Coming Back To Life
DR12 -0.37 dB -18.53 dB 6:11 09-Keep Talking
DR12 -0.73 dB -21.21 dB 5:14 10-Lost For Words
DR14 -0.83 dB -21.66 dB 8:28 11-High Hopes


Number of tracks: 11
Official DR value: DR13

Samplerate: 96000 Hz
Channels: 6
Bits per sample: 24
Bitrate: 7495 kbps
Codec: FLAC
================================================================================

Unreleased Studio Recordings -The Division Bell Sessions (5.1)

foobar2000 1.3.10 / Dynamic Range Meter 1.1.1
log date: 2020-01-14 14:58:27


Analyzed: Pink Floyd / Unreleased Studio Recordings (Mixes In 5.1)


DR Peak RMS Duration Track


DR14 -0.57 dB -17.61 dB 5:22 01-Blues 1
DR14 -1.39 dB -18.16 dB 6:41 02-Slippery Guitar
DR13 -1.59 dB -18.13 dB 2:34 03-Rick’s Theme
DR14 -0.68 dB -18.48 dB 4:28 04-David’s Blues
DR14 -1.57 dB -19.13 dB 3:18 05-Marooned Jam
DR12 -1.60 dB -17.01 dB 4:56 06-Nervana
DR12 -0.31 dB -18.43 dB 6:54 07-High Hopes (Early Version)


Number of tracks: 7
Official DR value: DR13

Samplerate: 96000 Hz
Channels: 6
Bits per sample: 24
Bitrate: 6534 kbps
Codec: FLAC
================================================================================

Unreleased Studio Recordings -The Division Bell Sessions (2.0)

foobar2000 1.3.10 / Dynamic Range Meter 1.1.1
log date: 2020-01-14 15:00:44


Analyzed: Pink Floyd / Unreleased Studio Recordings


DR Peak RMS Duration Track


DR11 -0.31 dB -12.63 dB 5:22 01-Blues 1
DR11 -0.31 dB -12.92 dB 6:41 02-Slippery Guitar
DR11 -0.31 dB -13.31 dB 2:34 03-Rick’s Theme
DR11 -0.31 dB -12.88 dB 4:28 04-David’s Blues
DR12 -0.31 dB -13.90 dB 3:18 05-Marooned Jam
DR10 -0.31 dB -11.73 dB 4:56 06-Nervana
DR11 -0.31 dB -13.64 dB 6:54 07-High Hopes (Early Version)


Number of tracks: 7
Official DR value: DR11

Samplerate: 96000 Hz
Channels: 2
Bits per sample: 24
Bitrate: 2602 kbps
Codec: FLAC
================================================================================

Допольнительная информация

Все треки получены путём извлечения соответствующих аудипотоков с BD-AUDIO диска и их последующим сжатием лосслесс кодером с помощью программы DVD Audio Extractor

image


More at ibit.to
And ibit.uno
And ibit.am
And ibit.ws

Comments

2 weeks ago

О! Спасибо, а то сам чуть не приступил к извлечению потоков

2 weeks ago

Пасибо.

2 weeks ago

Andry_Kozin писал(а): 78684147О! Спасибо, а то сам чуть не приступил к извлечению потоков И я тоже..., спасибо slayko

Files

Pink FloydThe Later Years 1987 - 2019Unreleased Studio RecordingsStereoPink Floyd - Unreleased Studio Recordings.cue 665 B
Pink FloydThe Later Years 1987 - 2019Unreleased Studio RecordingsMixes In 5.1Pink Floyd - Unreleased Studio Recordings (5.1).cue 687 B
Pink FloydThe Later Years 1987 - 2019A Momentary Lapse Of ReasonStereoPink Floyd - A Momentary Lapse Of Reason.cue 887 B
Pink FloydThe Later Years 1987 - 2019A Momentary Lapse Of ReasonMixes In 5.1Pink Floyd - A Momentary Lapse Of Reason (5.1).cue 938 B
Pink FloydThe Later Years 1987 - 2019The Division Bell2014 5.1 RemixPink Floyd - The Division Bell.cue 1.0 kB
Pink FloydThe Later Years 1987 - 2019Later-Years-Disc-6.jpg 45 kB
Pink FloydThe Later Years 1987 - 2019A Momentary Lapse Of ReasonMixes In 5.1folder.jpg 199 kB
Pink FloydThe Later Years 1987 - 2019A Momentary Lapse Of ReasonStereofolder.jpg 199 kB
Pink FloydThe Later Years 1987 - 2019The Division Bell2014 5.1 Remixfolder.jpg 199 kB
Pink FloydThe Later Years 1987 - 2019Unreleased Studio RecordingsMixes In 5.1folder.jpg 199 kB
Pink FloydThe Later Years 1987 - 2019Unreleased Studio RecordingsStereofolder.jpg 199 kB
Pink FloydThe Later Years 1987 - 2019cover.jpg 562 kB
Pink FloydThe Later Years 1987 - 2019Unreleased Studio RecordingsStereoPink Floyd - Unreleased Studio Recordings.flac 668 MB
Pink FloydThe Later Years 1987 - 2019A Momentary Lapse Of ReasonStereoPink Floyd - A Momentary Lapse Of Reason.flac 1.0 GB
Pink FloydThe Later Years 1987 - 2019Unreleased Studio RecordingsMixes In 5.1Pink Floyd - Unreleased Studio Recordings (5.1).flac 1.7 GB
Pink FloydThe Later Years 1987 - 2019A Momentary Lapse Of ReasonMixes In 5.1Pink Floyd - A Momentary Lapse Of Reason (5.1).flac 2.5 GB
Pink FloydThe Later Years 1987 - 2019The Division Bell2014 5.1 RemixPink Floyd - The Division Bell.flac 3.7 GB

Stream

Downloading Seeding Pink Floyd from to 0 peers.
of
0 b/s / ↗0 b/s