• 11
  • 0
Sponsored Downloadondemand_video
  • Pink Floyd The Wall Movie
  • 1.5 GB
  • eyesofflys
  • Pink Floyd Wall Movie
  • English
  • Movies
80%

Pink Floyd - The Wall (1982)

  • Music
  • A troubled rock star descends into madness in the midst of his physical and social isolation from everyone.

    expand_more
    English
  • $12,000,000
  • Description

    Imdb: https://www.imdb.com/title/tt0084503

    Pink Floyd: The Wall (1982) - Torrent Downloads Download Pink Floyd: The Wall 1982 movie from torrent downloads selecting either torrent or magnet link and watch Pink Floyd: The Wall full movie on HD downloading either 1080p or 720p torrent links. Genre Drama, Musical Imdb Rating 8.0/10 (67226) Description A confined but troubled rock star descends into madness in the midst of his physical and social isolation from everyone. Duration 95 minutes Secure Links Torrent Pink Floyd: The Wall with VPN Stream Pink Floyd: The Wall with VPN Quick Links Movie Info Torrent Downloads Keywords Related Alt Titles MPAA: (R) - Restricted Cast: Margery Mason, James Laurenson, Ellis Dale, Bob Hoskins, Christine Hargreaves, James Hazeldine, Ray Mort, Michael Ensign, Robert Bridges, Alex McAvoy, Bob Geldof, David Bingham, Eleanor David, Jenny Wright, Kevin McKeon Genre: Drama, Musical Date Published: 1982-09-17 Directors: Alan Parker Language: English Country: UK Imdb Link: Pink Floyd: The Wall


    More at ibit.to
    And ibit.uno
    And ibit.ws

    Reviews

    Comments

    9 years ago

    good move A/10 V/10 you can trust him

    8 years ago

    Alot of seeders, fast download.

    8 years ago

    General Format : AVI Format/Info : Audio Video Interleave File size : 1.47 GiB Duration : 1h 35mn Overall bit rate : 2 210 Kbps Writing application : VirtualDubMod 1.5.4.1 (build 2178/release) Writing library : VirtualDubMod build 2178/release

    Video ID : 0 Format : MPEG-4 Visual Format profile : Advanced Simpl[email protected] Format settings, BVOP : Yes Format settings, QPel : No Format settings, GMC : No warppoints Format settings, Matrix : Custom Codec ID : XVID Codec ID/Hint : XviD Duration : 1h 35mn Bit rate : 1 755 Kbps Width : 720 pixels Height : 320 pixels Display aspect ratio : 2.25:1 Frame rate : 23.976 fps Color space : YUV Chroma subsampling : 4:2:0 Bit depth : 8 bits Scan type : Progressive Bits/(Pixel*Frame) : 0.318 Stream size : 1.17 GiB (79%) Writing library : XviD 1.2.1 (UTC 2008-12-04)

    Audio ID : 1 Format : AC-3 Format/Info : Audio Coding 3 Mode extension : CM (complete main) Codec ID : 2000 Duration : 1h 35mn Bit rate mode : Constant Bit rate : 448 Kbps Channel(s) : 6 channels Channel positions : Front: L C R, Side: L R, LFE Sampling rate : 48.0 KHz Bit depth : 16 bits Stream size : 305 MiB (20%) Alignment : Split accross interleaves Interleave, duration : 96 ms (2.30 video frames) Interleave, preload duration : 96 ms

    8 years ago

    Sweet. Just shelled out a paycheck to see Roger Waters on tour, so I do not feel guilty about downloading my music and media for free. haha

    7 years ago

    Never seen this movie believe it or not. Question: does Floyd die at the end?

    BWAHAHA

    6 years ago

    downloaded great

    5 years ago

    Don't Click download!! I got a pop up saying text this code to such and such a number for password to get the download? was not informed They charge money!! and bill your cell phone. i was stupid yes to text as i wasn't aware. the reply was automated and didn't give a password it said cost is this much and is processing. i was like WTF? it said text STOP to cancel? i did that the reply i got was service cancelled i wouldn't receive any more text from them. a hour later? ta text comes in saying process completed and with a password to download. by then? i had found this movie elsewhere to download without paying! when i contacted them via email? they said too bad so sad basically. Total scammers!

    5 years ago

    just to share it was only this movie. the uploadedr is great normally :D so not sure what went wrong.

    5 years ago

    I will post this on some other PINK FLOYD - "THE WALL" torrents. I own the "Special Limited Edition DVD" (aka "The Collector's Edition"), 1999, filled with a lot of extras, in Hi-Definition film transfer (DVD9), but it's a SONY DVD. I've tried a lot of decoders (CloneDVD, AnyDVD-HD, DVDFab, WinX DVD Ripper, Xilisoft etc. etc.) Nothing worked for this SONY DVD. If any Pink Floyd fans know a way to make a copy of this DVD, please do. It's (I believe) the ultimate "The Wakk" DVD. Help me to share it. Send suggestions for some (please) at: [email protected] Thank you.

    5 years ago

    Done.

    Files

    Pink Floyd The Wall Movie Info.txt 4.4 kB
    Pink Floyd The Wall Movie [eyesofflys].avi 1.5 GB

    Stream

    Downloading Seeding Pink Floyd The Wall Movie from to 0 peers.
    of
    0 b/s / ↗0 b/s