• 2
  • 0
  • 7
Sponsored Downloadondemand_video
  • Pink Floyd The Wall 1982 720p BRRip XviD AC3-RARBG
  • 2.6 GB
  • Pink Floyd Wall 1982 720p BRRip XviD RARBG AC3
  • English
  • XVID/720
80%

Pink Floyd - The Wall (1982)

  • Music
  • A troubled rock star descends into madness in the midst of his physical and social isolation from everyone.

    expand_more
    English
  • $12,000,000
  • Description

    A confined but troubled rock star descends into madness in the midst of his physical and social isolation from everyone.

    https://www.imdb.com/title/tt0084503/

    image


    Do you want to help us by donating ?

    Bitcoin: 1GRt3ywthtCm3HbUu6HnnbYe5SUGvRAFi8

    Litecoin: LbPvD6o7SdDah1qQTQmLoNRYgycx6MbCdV


    Format                                   : AVI

    Format/Info                              : Audio Video Interleave

    Format profile                           : OpenDML

    File size                                : 2.63 GiB

    Duration                                 : 1h 35mn

    Overall bit rate                         : 3 958 Kbps

    Writing application                      : VirtualDubMod 1.5.10.2 (build 2540/release)

    Writing library                          : VirtualDubMod build 2540/release

    Video

    ID                                       : 0

    Format                                   : MPEG-4 Visual

    Format profile                           : Advanced Simple@L5

    Format settings, BVOP                    : 2

    Format settings, QPel                    : No

    Format settings, GMC                     : No warppoints

    Format settings, Matrix                  : Default (H.263)

    Muxing mode                              : Packed bitstream

    Codec ID                                 : XVID

    Codec ID/Hint                            : XviD

    Duration                                 : 1h 35mn

    Bit rate                                 : 3 499 Kbps

    Width                                    : 1 280 pixels

    Height                                   : 528 pixels

    Display aspect ratio                     : 2.40:1

    Frame rate                               : 23.976 fps

    Color space                              : YUV

    Chroma subsampling                       : 4:2:0

    Bit depth                                : 8 bits

    Scan type                                : Progressive

    Compression mode                         : Lossy

    Bits/(Pixel*Frame)                       : 0.216

    Stream size                              : 2.32 GiB (88%)

    Writing library                          : XviD 1.2.1 (UTC 2008-12-04)

    Audio

    ID                                       : 1

    Format                                   : AC-3

    Format/Info                              : Audio Coding 3

    Mode extension                           : CM (complete main)

    Format settings, Endianness              : Big

    Codec ID                                 : 2000

    Duration                                 : 1h 35mn

    Bit rate mode                            : Constant

    Bit rate                                 : 448 Kbps

    Channel(s)                               : 6 channels

    Channel positions                        : Front: L C R, Side: L R, LFE

    Sampling rate                            : 48.0 KHz

    Bit depth                                : 16 bits

    Compression mode                         : Lossy

    Stream size                              : 305 MiB (11%)

    Alignment                                : Split accross interleaves

    Interleave, duration                     : 42 ms (1.00 video frame)

    Interleave, preload duration             : 500 ms

    Screens:

    image

    image

    image

    image

    image

    image


    More at ibit.to
    And ibit.uno
    And ibit.ws

    Reviews

    Comments

    2 years ago

    This is the same HDTV source as all the other floating about. Stick your 'bluray' bull up your hole, ffs..

    Files

    Pink.Floyd.The.Wall.1982.720p.BRRip.XviD.AC3-RARBG.avi 2.6 GB
    RARBG.com.txt 30 B
    Pink.Floyd.The.Wall.1982.720p.BRRip.XviD.AC3-RARBG/Pink.Floyd.The.Wall.1982.720p.BRRip.XviD.AC3RARBG -
    Pink.Floyd.The.Wall.1982.720p.BRRip.XviD.AC3-RARBG/Pink.Floyd.The.Wall.1982.720p.BRRip.XviD.AC3RARBG.avi 2.6 GB
    Pink.Floyd.The.Wall.1982.720p.BRRip.XviD.AC3-RARBG/RARBG.com.txt 34 B

    Stream

    Downloading Seeding Pink Floyd The Wall 1982 720p BRRip XviD AC3-RARBG from to 0 peers.
    of
    0 b/s / ↗0 b/s