• -
  • -
  • done
Download
  • Pink Floyd - The Later Years 1987-2019
  • 20 GB
  • chka1961
  • Pink Floyd Later Years 1987 2019
  • Видео, DVD Video, HD Video (Ро

Description

[Pink Floyd - The Later Years 1987-2019

image

Страна : UK

Жанр : Progressive rock, Art rock, Psychedelic rock

Продолжительность : 01:55:20+(01:12:42+01:11:03)

Год создания : 2020

Доп. информация : Исходник Blu-ray (Спасибо anbelk27) image .
Меню анимированное, созданное на основе исходного.
Полученный результат проверен на работоспособность на софтовом Media Player Classic Home Cinema, записан на болванку с помощью ImgBurn и вновь проверен уже на бытовом плеере.

Релиз: image image image

Программы, использованные при создании этого релиза

Демуксинг

eac3to
HdBrStreamExtractor

Обработка видео

DGAVCDecode
AviSynth
Rhozet Carbon Coder

Обработка аудио

Sony SoundForge
DTS-HD Master Audio Suite

Создание меню

SnagIt
AviSynth
Rhozet Carbon Coder

Авторинг и проверка

MPEG Video Wizard DVD
Muxman
DVD-lab PRO
DvdReMakePro
image
imageimage

Скрипт

LoadPlugin("C:Portabledgavcdec109DGAVCDecode.dll")
AVCSource("D:RELIZIPink Floyd12video.dga")
LoadPlugin("C:Program Files (x86)AviSynthpluginsAutoYUY2.dll")
AutoYUY2()
LoadPlugin("C:Program Files (x86)AviSynthpluginsColorMatrix.dll")
ColorMatrix(mode="Rec.709->Rec.601", inputFR=false, clamp=0)
BicubicResize(720, 480, 0, 0.5)

LoadPlugin("C:Portabledgavcdec109DGAVCDecode.dll")
AVCSource("D:RELIZIPink Floyd12video.dga")
crop(240,0,-240,-0)
LoadPlugin("C:Program Files (x86)AviSynthpluginsAutoYUY2.dll")
AutoYUY2()
LoadPlugin("C:Program Files (x86)AviSynthpluginsColorMatrix.dll")
ColorMatrix(mode="Rec.709->Rec.601", inputFR=false, clamp=0)
BicubicResize(720, 480, 0, 0.5)

Точка перехода

imageimageimage
[/URL]

image image image image image image image image image

Копипастерам

image

Уважаемые, имеете желание и возможность далее распространить сие творение по просторам сети? Я совсем не жадный и манией собственности не страдаю. Конечно можно этот релиз заливать и на других трекерах и файлообменниках, после 100% скачивания.
Только будьте любезны уважать чужой труд и соблюдать правила приличия. Пожалуйста указывайте источник. Мой ник указывать не надо. Необходимо в описании добавить наш банер или сослаться на ресурс.

Код:

[b]Релиз:[/b] [img]image

[/img]

Код:

[b]Релиз: RG BD/HD > DVD (Custom) & Music Video Group Рутрекера[/b]

Delicate Sound Of Thunder

Треклист :
Shine On You Crazy Diamond, Parts 1-5
Signs Of Life
Learning To Fly
Sorrow
The Dogs Of War
On The Turning Away
One Of These Days
Time
On The Run
The Great Gig In The Sky
Wish You Were Here
Us And Them
Money
Comfortably Numb
One Slip
Run Like Hell

Разбивка на главы по трекам : есть

Качество : BD=>DVD9

Формат : DVD video

Видео кодек : MPEG2

Аудио кодек : PCM; DTS

Видео : NTSC 16:9 (720x480p) VBR, Auto Letterboxed, 6564(6700) kb/s, 23.976 fps

Аудио : English (LinearPCM, 2 ch) 1536 Kbps

Аудио2 : English (DTS, 6 ch) 96.0 KHz /24 bits 1510 Kbps

DVDinfo

`Title: Delicate Sound Of Thunder
Size: 7.95 Gb (8 332 726,00 KBytes) - DVD-9
Enabled regions: 1, 2, 3, 4, 5, 6, 7, 8

VTS_01 :
Play Length: 01:55:20
Video: NTSC 16:9 (720x480) VBR, Auto Letterboxed
Audio:
English (LinearPCM, 2 ch)
English (DTS, 6 ch)

  • Menus Information *

VIDEO_TS Menu
Video:
NTSC 16:9 (720x480) VBR
Auto Letterboxed
Audio:
Not specified (Dolby AC3, 2 ch)
English Language Unit :
Title Menu

VTS_01 Menu
Video:
NTSC 16:9 (720x480) VBR
Auto Letterboxed
Audio:
Not specified (Dolby AC3, 2 ch)
English Language Unit :
Root Menu `

Скриншоты меню

imageimageimageimage

Скриншоты

imageimageimageimage

imageimageimageimage

imageimageimageimage

Pulse

Треклист :

DVD1

Shine On You Crazy Diamond, Parts 1-5, 7
Learning To Fly
High Hopes
Take It Back
Coming Back To Life
Sorrow
Keep Talking
Another Brick In The Wall, Part 2
One Of These Days

DVD2

Speak To Me
Breathe (In The Air)
On The Run
Time
The Great Gig In The Sky
Money
Us And Them
Any Colour You Like
Brain Damage
Eclipse
Wish You Were Here
Comfortably Numb
Run Like Hell

DVD1

Разбивка на главы по трекам : есть

Качество : BD=>DVD9

Формат : DVD video

Видео кодек : MPEG2

Аудио кодек : PCM; DTS

Видео : NTSC 4:3 (720x480) VBR, 6700(6800) kb/s, 23.976 fps

Аудио : English (LinearPCM, 2 ch) 1536 Kbps

Аудио2 : English (DTS, 6 ch) 96.0 KHz /24 bits 1510 Kbps

DVDinfo+MI

`Title: DVD1
Size: 5.15 Gb (5 402 960,00 KBytes) - DVD-9
Enabled regions: 1, 2, 3, 4, 5, 6, 7, 8

VTS_01 :
Play Length: 01:12:42
Video: NTSC 4:3 (720x480) VBR
Audio:
English (LinearPCM, 2 ch)
English (DTS, 6 ch)

  • Menus Information *

VIDEO_TS Menu
Video:
NTSC 16:9 (720x480) VBR
Auto Letterboxed
Audio:
Not specified (LinearPCM, 2 ch)
English Language Unit :
Title Menu

VTS_01 Menu
Video:
NTSC 16:9 (720x480) VBR
Auto Letterboxed
Audio:
Not specified (LinearPCM, 2 ch)
English Language Unit :
Root Menu


General
Complete name : D:DownloadsPink Floyd - The Later Years 1987-2019PulseDVD1VIDEOTSVIDEOTS.BUP
Format : DVD Video
Format profile : Menu
File size : 12.0 KiB
Overall bit rate mode : Variable

Video
ID : 224 (0xE0)
Format : MPEG Video
Format version : Version 2
Bit rate mode : Variable
Width : 720 pixels
Height : 480 pixels
Display aspect ratio : 16:9
Frame rate : 29.970 fps
Standard : NTSC
Compression mode : Lossy

Audio
Format : PCM
Channel(s) : 2 channels
Sampling rate : 48.0 KHz

Text
Format : RLE
Format/Info : Run-length encoding
Bit depth : 2 bits

General
Complete name : D:DownloadsPink Floyd - The Later Years 1987-2019PulseDVD1VIDEOTSVIDEOTS.IFO
Format : DVD Video
Format profile : Menu
File size : 12.0 KiB
Overall bit rate mode : Variable

Video
ID : 224 (0xE0)
Format : MPEG Video
Format version : Version 2
Bit rate mode : Variable
Width : 720 pixels
Height : 480 pixels
Display aspect ratio : 16:9
Frame rate : 29.970 fps
Standard : NTSC
Compression mode : Lossy

Audio
Format : PCM
Channel(s) : 2 channels
Sampling rate : 48.0 KHz

Text
Format : RLE
Format/Info : Run-length encoding
Bit depth : 2 bits

General
Complete name : D:DownloadsPink Floyd - The Later Years 1987-2019PulseDVD1VIDEOTSVIDEOTS.VOB
Format : MPEG-PS
File size : 29.9 MiB
Duration : 32s 466ms
Overall bit rate mode : Variable
Overall bit rate : 7 718 Kbps
Writing library : (c) 1998-2009 Womble Multimedia, Inc. / MPEG Video Wizard (03/2009) / Jun 24 2009

Video
ID : 224 (0xE0)
Format : MPEG Video
Format version : Version 2
Format profile : [email protected]
Format settings, BVOP : Yes
Format settings, Matrix : Default
Format settings, GOP : M=3, N=15
Duration : 32s 466ms
Bit rate mode : Variable
Bit rate : 6 028 Kbps
Maximum bit rate : 8 000 Kbps
Width : 720 pixels
Height : 480 pixels
Display aspect ratio : 16:9
Frame rate : 29.970 fps
Standard : NTSC
Color space : YUV
Chroma subsampling : 4:2:0
Bit depth : 8 bits
Scan type : Progressive
Compression mode : Lossy
Bits/(Pixel*Frame) : 0.582
Time code of first frame : 00:00:00;00
Time code source : Group of pictures header
Stream size : 23.3 MiB (78%)
Writing library : (c) 1998-2009 Womble Multimedia, Inc. / MPEG Video Wizard (03/2009) / Jun 24 2009

Audio
ID : 189 (0xBD)-160 (0xA0)
Format : PCM
Format settings, Endianness : Big
Format settings, Sign : Signed
Muxing mode : DVD-Video
Duration : 32s 233ms
Bit rate mode : Constant
Bit rate : 1 536 Kbps
Channel(s) : 2 channels
Sampling rate : 48.0 KHz
Bit depth : 16 bits
Stream size : 5.90 MiB (20%)

Text #1
ID : 189 (0xBD)-32 (0x20)
Format : RLE
Format/Info : Run-length encoding
Muxing mode : DVD-Video

Text #2
ID : 189 (0xBD)-34 (0x22)
Format : RLE
Format/Info : Run-length encoding
Muxing mode : DVD-Video

Menu

General
Complete name : D:DownloadsPink Floyd - The Later Years 1987-2019PulseDVD1VIDEOTSVTS01_0.BUP
Format : DVD Video
Format profile : Program
File size : 54.0 KiB
Duration : 1h 12mn
Overall bit rate mode : Variable
Overall bit rate : 101 bps

Video
ID : 224 (0xE0)
Format : MPEG Video
Format version : Version 2
Duration : 1h 12mn
Bit rate mode : Variable
Width : 720 pixels
Height : 480 pixels
Display aspect ratio : 4:3
Frame rate : 29.970 fps
Standard : NTSC
Compression mode : Lossy

Audio #1
ID : 0 (0x0)
Format : PCM
Duration : 1h 12mn
Channel(s) : 2 channels
Sampling rate : 48.0 KHz
Language : English

Audio #2
ID : 137 (0x89)
Format : DTS
Format/Info : Digital Theater Systems
Channel(s) : 6 channels
Sampling rate : 0 Hz
Compression mode : Lossy
Language : English

Menu
Duration : 1h 12mn
00:00:00.000 : Chapter 1
00:13:23.333 : Chapter 2
00:19:03.299 : Chapter 3
00:27:14.765 : Chapter 4
00:33:10.898 : Chapter 5
00:40:05.531 : Chapter 6
00:51:15.664 : Chapter 7
00:58:54.330 : Chapter 8
01:05:40.563 : Chapter 9
01:12:41.396 : Chapter 10
List (Audio) : 0 / 1

General
Complete name : D:DownloadsPink Floyd - The Later Years 1987-2019PulseDVD1VIDEOTSVTS01_0.IFO
Format : DVD Video
Format profile : Program
File size : 54.0 KiB
Duration : 1h 12mn
Overall bit rate mode : Variable
Overall bit rate : 101 bps

Video
ID : 224 (0xE0)
Format : MPEG Video
Format version : Version 2
Duration : 1h 12mn
Bit rate mode : Variable
Width : 720 pixels
Height : 480 pixels
Display aspect ratio : 4:3
Frame rate : 29.970 fps
Standard : NTSC
Compression mode : Lossy

Audio #1
ID : 0 (0x0)
Format : PCM
Duration : 1h 12mn
Channel(s) : 2 channels
Sampling rate : 48.0 KHz
Language : English

Audio #2
ID : 137 (0x89)
Format : DTS
Format/Info : Digital Theater Systems
Channel(s) : 6 channels
Sampling rate : 0 Hz
Compression mode : Lossy
Language : English

Menu
Duration : 1h 12mn
00:00:00.000 : Chapter 1
00:13:23.333 : Chapter 2
00:19:03.299 : Chapter 3
00:27:14.765 : Chapter 4
00:33:10.898 : Chapter 5
00:40:05.531 : Chapter 6
00:51:15.664 : Chapter 7
00:58:54.330 : Chapter 8
01:05:40.563 : Chapter 9
01:12:41.396 : Chapter 10
List (Audio) : 0 / 1

General
Complete name : D:DownloadsPink Floyd - The Later Years 1987-2019PulseDVD1VIDEOTSVTS01_0.VOB
Format : MPEG-PS
File size : 78.4 MiB
Duration : 35s 68ms
Overall bit rate mode : Variable
Overall bit rate : 18.8 Mbps

Video
ID : 224 (0xE0)
Format : MPEG Video
Format version : Version 2
Format profile : [email protected]
Format settings, BVOP : Yes
Format settings, Matrix : Default
Format settings, GOP : M=3, N=15
Duration : 35s 68ms
Bit rate mode : Variable
Bit rate : 16.8 Mbps
Maximum bit rate : 8 500 Kbps
Width : 720 pixels
Height : 480 pixels
Display aspect ratio : 16:9
Frame rate : 29.970 fps
Standard : NTSC
Color space : YUV
Chroma subsampling : 4:2:0
Bit depth : 8 bits
Scan type : Progressive
Compression mode : Lossy
Bits/(Pixel*Frame) : 1.626
Time code of first frame : 00:00:00:00
Time code source : Group of pictures header
Stream size : 70.4 MiB (90%)
Color primaries : BT.470 System M
Transfer characteristics : BT.470 System M
Matrix coefficients : BT.601

Audio
ID : 189 (0xBD)-160 (0xA0)
Format : PCM
Format settings, Endianness : Big
Format settings, Sign : Signed
Muxing mode : DVD-Video
Duration : 34s 806ms
Bit rate mode : Constant
Bit rate : 1 536 Kbps
Channel(s) : 2 channels
Sampling rate : 48.0 KHz
Bit depth : 16 bits
Stream size : 6.37 MiB (8%)

Text #1
ID : 189 (0xBD)-32 (0x20)
Format : RLE
Format/Info : Run-length encoding
Muxing mode : DVD-Video

Text #2
ID : 189 (0xBD)-34 (0x22)
Format : RLE
Format/Info : Run-length encoding
Muxing mode : DVD-Video

Menu

General
Complete name : D:DownloadsPink Floyd - The Later Years 1987-2019PulseDVD1VIDEOTSVTS01_1.VOB
Format : MPEG-PS
File size : 1 024 MiB
Duration : 14mn 26s
Overall bit rate mode : Variable
Overall bit rate : 9 911 Kbps

Video
ID : 224 (0xE0)
Format : MPEG Video
Format version : Version 2
Format profile : [email protected]
Format settings, BVOP : Yes
Format settings, Matrix : Custom
Format settings, GOP : Variable
Duration : 14mn 26s
Bit rate mode : Variable
Bit rate : 6 668 Kbps
Maximum bit rate : 6 800 Kbps
Width : 720 pixels
Height : 480 pixels
Display aspect ratio : 4:3
Frame rate : 23.976 fps
Standard : NTSC
Color space : YUV
Chroma subsampling : 4:2:0
Bit depth : 8 bits
Scan type : Progressive
Scan order : 2:3 Pulldown
Compression mode : Lossy
Bits/(Pixel*Frame) : 0.805
Time code of first frame : 00:00:00:00
Time code source : Group of pictures header
Stream size : 689 MiB (67%)

Audio #1
ID : 189 (0xBD)-137 (0x89)
Format : DTS
Format/Info : Digital Theater Systems
Format profile : 96/24 / Core
Mode : 16
Format settings, Endianness : Big
Muxing mode : DVD-Video
Duration : 14mn 26s
Bit rate mode : Constant
Bit rate : 1 510 Kbps
Channel(s) : 6 channels
Channel positions : Front: L C R, Side: L R, LFE
Sampling rate : 96.0 KHz / 48.0 KHz
Bit depth : 24 bits
Compression mode : Lossy
Stream size : 156 MiB (15%)

Audio #2
ID : 189 (0xBD)-160 (0xA0)
Format : PCM
Format settings, Endianness : Big
Format settings, Sign : Signed
Muxing mode : DVD-Video
Duration : 14mn 26s
Bit rate mode : Constant
Bit rate : 1 536 Kbps
Channel(s) : 2 channels
Sampling rate : 48.0 KHz
Bit depth : 16 bits
Stream size : 159 MiB (15%)

Menu

General
Complete name : D:DownloadsPink Floyd - The Later Years 1987-2019PulseDVD1VIDEOTSVTS01_2.VOB
Format : MPEG-PS
File size : 1 024 MiB
Duration : 14mn 24s
Overall bit rate mode : Variable
Overall bit rate : 9 935 Kbps

Video
ID : 224 (0xE0)
Format : MPEG Video
Format version : Version 2
Format profile : [email protected]
Format settings, BVOP : Yes
Format settings, Matrix : Custom
Format settings, GOP : Variable
Duration : 14mn 24s
Bit rate mode : Variable
Bit rate : 6 692 Kbps
Maximum bit rate : 6 800 Kbps
Width : 720 pixels
Height : 480 pixels
Display aspect ratio : 4:3
Frame rate : 23.976 fps
Standard : NTSC
Color space : YUV
Chroma subsampling : 4:2:0
Bit depth : 8 bits
Scan type : Progressive
Scan order : 2:3 Pulldown
Compression mode : Lossy
Bits/(Pixel*Frame) : 0.808
Time code of first frame : 00:14:25:28
Time code source : Group of pictures header
Stream size : 690 MiB (67%)

Audio #1
ID : 189 (0xBD)-137 (0x89)
Format : DTS
Format/Info : Digital Theater Systems
Format profile : 96/24 / Core
Mode : 16
Format settings, Endianness : Big
Muxing mode : DVD-Video
Duration : 14mn 24s
Bit rate mode : Constant
Bit rate : 1 510 Kbps
Channel(s) : 6 channels
Channel positions : Front: L C R, Side: L R, LFE
Sampling rate : 96.0 KHz / 48.0 KHz
Bit depth : 24 bits
Compression mode : Lossy
Delay relative to video : -370ms
Stream size : 156 MiB (15%)

Audio #2
ID : 189 (0xBD)-160 (0xA0)
Format : PCM
Format settings, Endianness : Big
Format settings, Sign : Signed
Muxing mode : DVD-Video
Duration : 14mn 24s
Bit rate mode : Constant
Bit rate : 1 536 Kbps
Channel(s) : 2 channels
Sampling rate : 48.0 KHz
Bit depth : 16 bits
Delay relative to video : -371ms
Stream size : 158 MiB (15%)

Menu

General
Complete name : D:DownloadsPink Floyd - The Later Years 1987-2019PulseDVD1VIDEOTSVTS01_3.VOB
Format : MPEG-PS
File size : 1 024 MiB
Duration : 14mn 24s
Overall bit rate mode : Variable
Overall bit rate : 9 934 Kbps

Video
ID : 224 (0xE0)
Format : MPEG Video
Format version : Version 2
Format profile : [email protected]
Format settings, BVOP : Yes
Format settings, Matrix : Custom
Format settings, GOP : Variable
Duration : 14mn 24s
Bit rate mode : Variable
Bit rate : 6 690 Kbps
Maximum bit rate : 6 800 Kbps
Width : 720 pixels
Height : 480 pixels
Display aspect ratio : 4:3
Frame rate : 23.976 fps
Standard : NTSC
Color space : YUV
Chroma subsampling : 4:2:0
Bit depth : 8 bits
Scan type : Progressive
Scan order : 2:3 Pulldown
Compression mode : Lossy
Bits/(Pixel*Frame) : 0.807
Time code of first frame : 00:28:49:25
Time code source : Group of pictures header
Stream size : 689 MiB (67%)

Audio #1
ID : 189 (0xBD)-137 (0x89)
Format : DTS
Format/Info : Digital Theater Systems
Format profile : 96/24 / Core
Mode : 16
Format settings, Endianness : Big
Muxing mode : DVD-Video
Duration : 14mn 24s
Bit rate mode : Constant
Bit rate : 1 510 Kbps
Channel(s) : 6 channels
Channel positions : Front: L C R, Side: L R, LFE
Sampling rate : 96.0 KHz / 48.0 KHz
Bit depth : 24 bits
Compression mode : Lossy
Delay relative to video : -491ms
Stream size : 156 MiB (15%)

Audio #2
ID : 189 (0xBD)-160 (0xA0)
Format : PCM
Format settings, Endianness : Big
Format settings, Sign : Signed
Muxing mode : DVD-Video
Duration : 14mn 24s
Bit rate mode : Constant
Bit rate : 1 536 Kbps
Channel(s) : 2 channels
Sampling rate : 48.0 KHz
Bit depth : 16 bits
Delay relative to video : -488ms
Stream size : 158 MiB (15%)

Menu

General
Complete name : D:DownloadsPink Floyd - The Later Years 1987-2019PulseDVD1VIDEOTSVTS01_4.VOB
Format : MPEG-PS
File size : 1 024 MiB
Duration : 14mn 25s
Overall bit rate mode : Variable
Overall bit rate : 9 925 Kbps

Video
ID : 224 (0xE0)
Format : MPEG Video
Format version : Version 2
Format profile : [email protected]
Format settings, BVOP : Yes
Format settings, Matrix : Custom
Format settings, GOP : Variable
Duration : 14mn 24s
Bit rate mode : Variable
Bit rate : 6 682 Kbps
Maximum bit rate : 6 800 Kbps
Width : 720 pixels
Height : 480 pixels
Display aspect ratio : 4:3
Frame rate : 23.976 fps
Standard : NTSC
Color space : YUV
Chroma subsampling : 4:2:0
Bit depth : 8 bits
Scan type : Progressive
Scan order : 2:3 Pulldown
Compression mode : Lossy
Bits/(Pixel*Frame) : 0.806
Time code of first frame : 00:43:13:25
Time code source : Group of pictures header
Stream size : 689 MiB (67%)

Audio #1
ID : 189 (0xBD)-137 (0x89)
Format : DTS
Format/Info : Digital Theater Systems
Format profile : 96/24 / Core
Mode : 16
Format settings, Endianness : Big
Muxing mode : DVD-Video
Duration : 14mn 25s
Bit rate mode : Constant
Bit rate : 1 510 Kbps
Channel(s) : 6 channels
Channel positions : Front: L C R, Side: L R, LFE
Sampling rate : 96.0 KHz / 48.0 KHz
Bit depth : 24 bits
Compression mode : Lossy
Delay relative to video : -713ms
Stream size : 156 MiB (15%)

Audio #2
ID : 189 (0xBD)-160 (0xA0)
Format : PCM
Format settings, Endianness : Big
Format settings, Sign : Signed
Muxing mode : DVD-Video
Duration : 14mn 25s
Bit rate mode : Constant
Bit rate : 1 536 Kbps
Channel(s) : 2 channels
Sampling rate : 48.0 KHz
Bit depth : 16 bits
Delay relative to video : -709ms
Stream size : 158 MiB (15%)

Menu

General
Complete name : D:DownloadsPink Floyd - The Later Years 1987-2019PulseDVD1VIDEOTSVTS01_5.VOB
Format : MPEG-PS
File size : 1 024 MiB
Duration : 14mn 24s
Overall bit rate mode : Variable
Overall bit rate : 9 937 Kbps

Video
ID : 224 (0xE0)
Format : MPEG Video
Format version : Version 2
Format profile : [email protected]
Format settings, BVOP : Yes
Format settings, Matrix : Custom
Format settings, GOP : Variable
Duration : 14mn 24s
Bit rate mode : Variable
Bit rate : 6 693 Kbps
Maximum bit rate : 6 800 Kbps
Width : 720 pixels
Height : 480 pixels
Display aspect ratio : 4:3
Frame rate : 23.976 fps
Standard : NTSC
Color space : YUV
Chroma subsampling : 4:2:0
Bit depth : 8 bits
Scan type : Progressive
Scan order : 2:3 Pulldown
Compression mode : Lossy
Bits/(Pixel*Frame) : 0.808
Time code of first frame : 00:57:38:09
Time code source : Group of pictures header
Stream size : 689 MiB (67%)

Audio #1
ID : 189 (0xBD)-137 (0x89)
Format : DTS
Format/Info : Digital Theater Systems
Format profile : 96/24 / Core
Mode : 16
Format settings, Endianness : Big
Muxing mode : DVD-Video
Duration : 14mn 24s
Bit rate mode : Constant
Bit rate : 1 510 Kbps
Channel(s) : 6 channels
Channel positions : Front: L C R, Side: L R, LFE
Sampling rate : 96.0 KHz / 48.0 KHz
Bit depth : 24 bits
Compression mode : Lossy
Delay relative to video : -555ms
Stream size : 156 MiB (15%)

Audio #2
ID : 189 (0xBD)-160 (0xA0)
Format : PCM
Format settings, Endianness : Big
Format settings, Sign : Signed
Muxing mode : DVD-Video
Duration : 14mn 24s
Bit rate mode : Constant
Bit rate : 1 536 Kbps
Channel(s) : 2 channels
Sampling rate : 48.0 KHz
Bit depth : 16 bits
Delay relative to video : -555ms
Stream size : 158 MiB (15%)

Menu

General
Complete name : D:DownloadsPink Floyd - The Later Years 1987-2019PulseDVD1VIDEOTSVTS01_6.VOB
Format : MPEG-PS
File size : 47.9 MiB
Duration : 40s 683ms
Overall bit rate mode : Variable
Overall bit rate : 9 885 Kbps

Video
ID : 224 (0xE0)
Format : MPEG Video
Format version : Version 2
Format profile : [email protected]
Format settings, BVOP : Yes
Format settings, Matrix : Custom
Format settings, GOP : Variable
Duration : 40s 557ms
Bit rate mode : Variable
Bit rate : 6 642 Kbps
Maximum bit rate : 6 800 Kbps
Width : 720 pixels
Height : 480 pixels
Display aspect ratio : 4:3
Frame rate : 23.976 fps
Standard : NTSC
Color space : YUV
Chroma subsampling : 4:2:0
Bit depth : 8 bits
Scan type : Progressive
Scan order : 2:3 Pulldown
Compression mode : Lossy
Bits/(Pixel*Frame) : 0.802
Time code of first frame : 01:12:01:20
Time code source : Group of pictures header
Stream size : 32.1 MiB (67%)

Audio #1
ID : 189 (0xBD)-137 (0x89)
Format : DTS
Format/Info : Digital Theater Systems
Format profile : 96/24 / Core
Mode : 16
Format settings, Endianness : Big
Muxing mode : DVD-Video
Duration : 40s 683ms
Bit rate mode : Constant
Bit rate : 1 510 Kbps
Channel(s) : 6 channels
Channel positions : Front: L C R, Side: L R, LFE
Sampling rate : 96.0 KHz / 48.0 KHz
Bit depth : 24 bits
Compression mode : Lossy
Delay relative to video : -333ms
Stream size : 7.32 MiB (15%)

Audio #2
ID : 189 (0xBD)-160 (0xA0)
Format : PCM
Format settings, Endianness : Big
Format settings, Sign : Signed
Muxing mode : DVD-Video
Duration : 40s 683ms
Bit rate mode : Constant
Bit rate : 1 536 Kbps
Channel(s) : 2 channels
Sampling rate : 48.0 KHz
Bit depth : 16 bits
Delay relative to video : -337ms
Stream size : 7.45 MiB (16%) `

DVD2

Разбивка на главы по трекам : есть

Качество : BD=>DVD9

Формат : DVD video

Видео кодек : MPEG2

Аудио кодек : PCM; DTS

Видео : NTSC 4:3 (720x480) VBR, 6679(6800) kb/s, 23.976 fps

Аудио : English (LinearPCM, 2 ch) 1536 Kbps

Аудио2 : English (DTS, 6 ch) 96.0 KHz /24 bits 1510 Kbps

DVDinfo+MI

`Title: DVD2
Size: 5.05 Gb (5 297 670,00 KBytes) - DVD-9
Enabled regions: 1, 2, 3, 4, 5, 6, 7, 8

VTS_01 :
Play Length: 01:11:03
Video: NTSC 4:3 (720x480) VBR
Audio:
English (LinearPCM, 2 ch)
English (DTS, 6 ch)

  • Menus Information *

VIDEO_TS Menu
Video:
NTSC 16:9 (720x480) VBR
Auto Letterboxed
Audio:
Not specified (LinearPCM, 2 ch)
English Language Unit :
Title Menu

VTS_01 Menu
Video:
NTSC 16:9 (720x480) VBR
Auto Letterboxed
Audio:
Not specified (LinearPCM, 2 ch)
English Language Unit :
Root Menu


General
Complete name : D:DownloadsPink Floyd - The Later Years 1987-2019PulseDVD2VIDEOTSVIDEOTS.BUP
Format : DVD Video
Format profile : Menu
File size : 12.0 KiB
Overall bit rate mode : Variable

Video
ID : 224 (0xE0)
Format : MPEG Video
Format version : Version 2
Bit rate mode : Variable
Width : 720 pixels
Height : 480 pixels
Display aspect ratio : 16:9
Frame rate : 29.970 fps
Standard : NTSC
Compression mode : Lossy

Audio
Format : PCM
Channel(s) : 2 channels
Sampling rate : 48.0 KHz

Text
Format : RLE
Format/Info : Run-length encoding
Bit depth : 2 bits

General
Complete name : D:DownloadsPink Floyd - The Later Years 1987-2019PulseDVD2VIDEOTSVIDEOTS.IFO
Format : DVD Video
Format profile : Menu
File size : 12.0 KiB
Overall bit rate mode : Variable

Video
ID : 224 (0xE0)
Format : MPEG Video
Format version : Version 2
Bit rate mode : Variable
Width : 720 pixels
Height : 480 pixels
Display aspect ratio : 16:9
Frame rate : 29.970 fps
Standard : NTSC
Compression mode : Lossy

Audio
Format : PCM
Channel(s) : 2 channels
Sampling rate : 48.0 KHz

Text
Format : RLE
Format/Info : Run-length encoding
Bit depth : 2 bits

General
Complete name : D:DownloadsPink Floyd - The Later Years 1987-2019PulseDVD2VIDEOTSVIDEOTS.VOB
Format : MPEG-PS
File size : 29.9 MiB
Duration : 32s 466ms
Overall bit rate mode : Variable
Overall bit rate : 7 718 Kbps
Writing library : (c) 1998-2009 Womble Multimedia, Inc. / MPEG Video Wizard (03/2009) / Jun 24 2009

Video
ID : 224 (0xE0)
Format : MPEG Video
Format version : Version 2
Format profile : [email protected]
Format settings, BVOP : Yes
Format settings, Matrix : Default
Format settings, GOP : M=3, N=15
Duration : 32s 466ms
Bit rate mode : Variable
Bit rate : 6 028 Kbps
Maximum bit rate : 8 000 Kbps
Width : 720 pixels
Height : 480 pixels
Display aspect ratio : 16:9
Frame rate : 29.970 fps
Standard : NTSC
Color space : YUV
Chroma subsampling : 4:2:0
Bit depth : 8 bits
Scan type : Progressive
Compression mode : Lossy
Bits/(Pixel*Frame) : 0.582
Time code of first frame : 00:00:00;00
Time code source : Group of pictures header
Stream size : 23.3 MiB (78%)
Writing library : (c) 1998-2009 Womble Multimedia, Inc. / MPEG Video Wizard (03/2009) / Jun 24 2009

Audio
ID : 189 (0xBD)-160 (0xA0)
Format : PCM
Format settings, Endianness : Big
Format settings, Sign : Signed
Muxing mode : DVD-Video
Duration : 32s 233ms
Bit rate mode : Constant
Bit rate : 1 536 Kbps
Channel(s) : 2 channels
Sampling rate : 48.0 KHz
Bit depth : 16 bits
Stream size : 5.90 MiB (20%)

Text #1
ID : 189 (0xBD)-32 (0x20)
Format : RLE
Format/Info : Run-length encoding
Muxing mode : DVD-Video

Text #2
ID : 189 (0xBD)-34 (0x22)
Format : RLE
Format/Info : Run-length encoding
Muxing mode : DVD-Video

Menu

General
Complete name : D:DownloadsPink Floyd - The Later Years 1987-2019PulseDVD2VIDEOTSVTS01_0.BUP
Format : DVD Video
Format profile : Program
File size : 54.0 KiB
Duration : 1h 11mn
Overall bit rate mode : Variable
Overall bit rate : 104 bps

Video
ID : 224 (0xE0)
Format : MPEG Video
Format version : Version 2
Duration : 1h 11mn
Bit rate mode : Variable
Width : 720 pixels
Height : 480 pixels
Display aspect ratio : 4:3
Frame rate : 29.970 fps
Standard : NTSC
Compression mode : Lossy

Audio #1
ID : 0 (0x0)
Format : PCM
Duration : 1h 11mn
Channel(s) : 2 channels
Sampling rate : 48.0 KHz
Language : English

Audio #2
ID : 137 (0x89)
Format : DTS
Format/Info : Digital Theater Systems
Channel(s) : 6 channels
Sampling rate : 0 Hz
Compression mode : Lossy
Language : English

Menu
Duration : 1h 11mn
00:00:00.000 : Chapter 1
00:01:51.500 : Chapter 2
00:04:29.433 : Chapter 3
00:08:11.766 : Chapter 4
00:14:51.766 : Chapter 5
00:20:09.266 : Chapter 6
00:28:58.366 : Chapter 7
00:35:58.299 : Chapter 8
00:39:14.665 : Chapter 9
00:43:01.998 : Chapter 10
00:46:05.231 : Chapter 11
00:52:10.997 : Chapter 12
01:01:46.463 : Chapter 13
01:09:45.863 : Chapter 14
List (Audio) : 0 / 1

General
Complete name : D:DownloadsPink Floyd - The Later Years 1987-2019PulseDVD2VIDEOTSVTS01_0.IFO
Format : DVD Video
Format profile : Program
File size : 54.0 KiB
Duration : 1h 11mn
Overall bit rate mode : Variable
Overall bit rate : 104 bps

Video
ID : 224 (0xE0)
Format : MPEG Video
Format version : Version 2
Duration : 1h 11mn
Bit rate mode : Variable
Width : 720 pixels
Height : 480 pixels
Display aspect ratio : 4:3
Frame rate : 29.970 fps
Standard : NTSC
Compression mode : Lossy

Audio #1
ID : 0 (0x0)
Format : PCM
Duration : 1h 11mn
Channel(s) : 2 channels
Sampling rate : 48.0 KHz
Language : English

Audio #2
ID : 137 (0x89)
Format : DTS
Format/Info : Digital Theater Systems
Channel(s) : 6 channels
Sampling rate : 0 Hz
Compression mode : Lossy
Language : English

Menu
Duration : 1h 11mn
00:00:00.000 : Chapter 1
00:01:51.500 : Chapter 2
00:04:29.433 : Chapter 3
00:08:11.766 : Chapter 4
00:14:51.766 : Chapter 5
00:20:09.266 : Chapter 6
00:28:58.366 : Chapter 7
00:35:58.299 : Chapter 8
00:39:14.665 : Chapter 9
00:43:01.998 : Chapter 10
00:46:05.231 : Chapter 11
00:52:10.997 : Chapter 12
01:01:46.463 : Chapter 13
01:09:45.863 : Chapter 14
List (Audio) : 0 / 1

General
Complete name : D:DownloadsPink Floyd - The Later Years 1987-2019PulseDVD2VIDEOTSVTS01_0.VOB
Format : MPEG-PS
File size : 104 MiB
Duration : 35s 68ms
Overall bit rate mode : Variable
Overall bit rate : 24.9 Mbps

Video
ID : 224 (0xE0)
Format : MPEG Video
Format version : Version 2
Format profile : [email protected]
Format settings, BVOP : Yes
Format settings, Matrix : Default
Format settings, GOP : M=3, N=15
Duration : 35s 68ms
Bit rate mode : Variable
Bit rate : 22.9 Mbps
Maximum bit rate : 8 500 Kbps
Width : 720 pixels
Height : 480 pixels
Display aspect ratio : 16:9
Frame rate : 29.970 fps
Standard : NTSC
Color space : YUV
Chroma subsampling : 4:2:0
Bit depth : 8 bits
Scan type : Progressive
Compression mode : Lossy
Bits/(Pixel*Frame) : 2.210
Time code of first frame : 00:00:00:00
Time code source : Group of pictures header
Stream size : 95.7 MiB (92%)
Color primaries : BT.470 System M
Transfer characteristics : BT.470 System M
Matrix coefficients : BT.601

Audio
ID : 189 (0xBD)-160 (0xA0)
Format : PCM
Format settings, Endianness : Big
Format settings, Sign : Signed
Muxing mode : DVD-Video
Duration : 34s 806ms
Bit rate mode : Constant
Bit rate : 1 536 Kbps
Channel(s) : 2 channels
Sampling rate : 48.0 KHz
Bit depth : 16 bits
Stream size : 6.37 MiB (6%)

Text #1
ID : 189 (0xBD)-32 (0x20)
Format : RLE
Format/Info : Run-length encoding
Muxing mode : DVD-Video

Text #2
ID : 189 (0xBD)-34 (0x22)
Format : RLE
Format/Info : Run-length encoding
Muxing mode : DVD-Video

Menu

General
Complete name : D:DownloadsPink Floyd - The Later Years 1987-2019PulseDVD2VIDEOTSVTS01_1.VOB
Format : MPEG-PS
File size : 1 024 MiB
Duration : 14mn 39s
Overall bit rate mode : Variable
Overall bit rate : 9 771 Kbps

Video
ID : 224 (0xE0)
Format : MPEG Video
Format version : Version 2
Format profile : [email protected]
Format settings, BVOP : Yes
Format settings, Matrix : Custom
Format settings, GOP : Variable
Duration : 14mn 39s
Bit rate mode : Variable
Bit rate : 6 531 Kbps
Maximum bit rate : 6 800 Kbps
Width : 720 pixels
Height : 480 pixels
Display aspect ratio : 4:3
Frame rate : 23.976 fps
Standard : NTSC
Color space : YUV
Chroma subsampling : 4:2:0
Bit depth : 8 bits
Scan type : Progressive
Scan order : 2:3 Pulldown
Compression mode : Lossy
Bits/(Pixel*Frame) : 0.788
Time code of first frame : 01:12:42:10
Time code source : Group of pictures header
Stream size : 684 MiB (67%)

Audio #1
ID : 189 (0xBD)-137 (0x89)
Format : DTS
Format/Info : Digital Theater Systems
Format profile : 96/24 / Core
Mode : 16
Format settings, Endianness : Big
Muxing mode : DVD-Video
Duration : 14mn 39s
Bit rate mode : Constant
Bit rate : 1 510 Kbps
Channel(s) : 6 channels
Channel positions : Front: L C R, Side: L R, LFE
Sampling rate : 96.0 KHz / 48.0 KHz
Bit depth : 24 bits
Compression mode : Lossy
Delay relative to video : -357ms
Stream size : 158 MiB (15%)

Audio #2
ID : 189 (0xBD)-160 (0xA0)
Format : PCM
Format settings, Endianness : Big
Format settings, Sign : Signed
Muxing mode : DVD-Video
Duration : 14mn 39s
Bit rate mode : Constant
Bit rate : 1 536 Kbps
Channel(s) : 2 channels
Sampling rate : 48.0 KHz
Bit depth : 16 bits
Delay relative to video : -360ms
Stream size : 161 MiB (16%)

Menu

General
Complete name : D:DownloadsPink Floyd - The Later Years 1987-2019PulseDVD2VIDEOTSVTS01_2.VOB
Format : MPEG-PS
File size : 1 024 MiB
Duration : 14mn 24s
Overall bit rate mode : Variable
Overall bit rate : 9 938 Kbps

Video
ID : 224 (0xE0)
Format : MPEG Video
Format version : Version 2
Format profile : [email protected]
Format settings, BVOP : Yes
Format settings, Matrix : Custom
Format settings, GOP : M=3, N=12
Duration : 14mn 23s
Bit rate mode : Variable
Bit rate : 6 695 Kbps
Maximum bit rate : 6 800 Kbps
Width : 720 pixels
Height : 480 pixels
Display aspect ratio : 4:3
Frame rate : 23.976 fps
Standard : NTSC
Color space : YUV
Chroma subsampling : 4:2:0
Bit depth : 8 bits
Scan type : Progressive
Scan order : 2:3 Pulldown
Compression mode : Lossy
Bits/(Pixel*Frame) : 0.808
Time code of first frame : 01:27:20:28
Time code source : Group of pictures header
Stream size : 690 MiB (67%)

Audio #1
ID : 189 (0xBD)-137 (0x89)
Format : DTS
Format/Info : Digital Theater Systems
Format profile : 96/24 / Core
Mode : 16
Format settings, Endianness : Big
Muxing mode : DVD-Video
Duration : 14mn 24s
Bit rate mode : Constant
Bit rate : 1 510 Kbps
Channel(s) : 6 channels
Channel positions : Front: L C R, Side: L R, LFE
Sampling rate : 96.0 KHz / 48.0 KHz
Bit depth : 24 bits
Compression mode : Lossy
Delay relative to video : -673ms
Stream size : 156 MiB (15%)

Audio #2
ID : 189 (0xBD)-160 (0xA0)
Format : PCM
Format settings, Endianness : Big
Format settings, Sign : Signed
Muxing mode : DVD-Video
Duration : 14mn 24s
Bit rate mode : Constant
Bit rate : 1 536 Kbps
Channel(s) : 2 channels
Sampling rate : 48.0 KHz
Bit depth : 16 bits
Delay relative to video : -686ms
Stream size : 158 MiB (15%)

Menu

General
Complete name : D:DownloadsPink Floyd - The Later Years 1987-2019PulseDVD2VIDEOTSVTS01_3.VOB
Format : MPEG-PS
File size : 1 024 MiB
Duration : 14mn 21s
Overall bit rate mode : Variable
Overall bit rate : 9 974 Kbps

Video
ID : 224 (0xE0)
Format : MPEG Video
Format version : Version 2
Format profile : [email protected]
Format settings, BVOP : Yes
Format settings, Matrix : Custom
Format settings, GOP : Variable
Duration : 14mn 21s
Bit rate mode : Variable
Bit rate : 6 730 Kbps
Maximum bit rate : 6 800 Kbps
Width : 720 pixels
Height : 480 pixels
Display aspect ratio : 4:3
Frame rate : 23.976 fps
Standard : NTSC
Color space : YUV
Chroma subsampling : 4:2:0
Bit depth : 8 bits
Scan type : Progressive
Scan order : 2:3 Pulldown
Compression mode : Lossy
Bits/(Pixel*Frame) : 0.812
Time code of first frame : 01:41:44:05
Time code source : Group of pictures header
Stream size : 691 MiB (67%)

Audio #1
ID : 189 (0xBD)-137 (0x89)
Format : DTS
Format/Info : Digital Theater Systems
Format profile : 96/24 / Core
Mode : 16
Format settings, Endianness : Big
Muxing mode : DVD-Video
Duration : 14mn 21s
Bit rate mode : Constant
Bit rate : 1 510 Kbps
Channel(s) : 6 channels
Channel positions : Front: L C R, Side: L R, LFE
Sampling rate : 96.0 KHz / 48.0 KHz
Bit depth : 24 bits
Compression mode : Lossy
Delay relative to video : -467ms
Stream size : 155 MiB (15%)

Audio #2
ID : 189 (0xBD)-160 (0xA0)
Format : PCM
Format settings, Endianness : Big
Format settings, Sign : Signed
Muxing mode : DVD-Video
Duration : 14mn 21s
Bit rate mode : Constant
Bit rate : 1 536 Kbps
Channel(s) : 2 channels
Sampling rate : 48.0 KHz
Bit depth : 16 bits
Delay relative to video : -480ms
Stream size : 158 MiB (15%)

Menu

General
Complete name : D:DownloadsPink Floyd - The Later Years 1987-2019PulseDVD2VIDEOTSVTS01_4.VOB
Format : MPEG-PS
File size : 1 024 MiB
Duration : 14mn 23s
Overall bit rate mode : Variable
Overall bit rate : 9 951 Kbps

Video
ID : 224 (0xE0)
Format : MPEG Video
Format version : Version 2
Format profile : [email protected]
Format settings, BVOP : Yes
Format settings, Matrix : Custom
Format settings, GOP : Variable
Duration : 14mn 22s
Bit rate mode : Variable
Bit rate : 6 707 Kbps
Maximum bit rate : 6 800 Kbps
Width : 720 pixels
Height : 480 pixels
Display aspect ratio : 4:3
Frame rate : 29.970 fps
Standard : NTSC
Color space : YUV
Chroma subsampling : 4:2:0
Bit depth : 8 bits
Compression mode : Lossy
Bits/(Pixel*Frame) : 0.648
Time code of first frame : 01:56:04:24
Time code source : Group of pictures header
Stream size : 690 MiB (67%)

Audio #1
ID : 189 (0xBD)-137 (0x89)
Format : DTS
Format/Info : Digital Theater Systems
Format profile : 96/24 / Core
Mode : 16
Format settings, Endianness : Big
Muxing mode : DVD-Video
Duration : 14mn 23s
Bit rate mode : Constant
Bit rate : 1 510 Kbps
Channel(s) : 6 channels
Channel positions : Front: L C R, Side: L R, LFE
Sampling rate : 96.0 KHz / 48.0 KHz
Bit depth : 24 bits
Compression mode : Lossy
Delay relative to video : -706ms
Stream size : 155 MiB (15%)

Audio #2
ID : 189 (0xBD)-160 (0xA0)
Format : PCM
Format settings, Endianness : Big
Format settings, Sign : Signed
Muxing mode : DVD-Video
Duration : 14mn 23s
Bit rate mode : Constant
Bit rate : 1 536 Kbps
Channel(s) : 2 channels
Sampling rate : 48.0 KHz
Bit depth : 16 bits
Delay relative to video : -713ms
Stream size : 158 MiB (15%)

Menu

General
Complete name : D:DownloadsPink Floyd - The Later Years 1987-2019PulseDVD2VIDEOTSVTS01_5.VOB
Format : MPEG-PS
File size : 943 MiB
Duration : 13mn 19s
Overall bit rate mode : Variable
Overall bit rate : 9 903 Kbps

Video
ID : 224 (0xE0)
Format : MPEG Video
Format version : Version 2
Format profile : [email protected]
Format settings, BVOP : Yes
Format settings, Matrix : Custom
Format settings, GOP : M=3, N=12
Duration : 13mn 19s
Bit rate mode : Variable
Bit rate : 6 660 Kbps
Maximum bit rate : 6 800 Kbps
Width : 720 pixels
Height : 480 pixels
Display aspect ratio : 4:3
Frame rate : 23.976 fps
Standard : NTSC
Color space : YUV
Chroma subsampling : 4:2:0
Bit depth : 8 bits
Scan type : Progressive
Scan order : 2:3 Pulldown
Compression mode : Lossy
Bits/(Pixel*Frame) : 0.804
Time code of first frame : 02:10:26:26
Time code source : Group of pictures header
Stream size : 634 MiB (67%)

Audio #1
ID : 189 (0xBD)-137 (0x89)
Format : DTS
Format/Info : Digital Theater Systems
Format profile : 96/24 / Core
Mode : 16
Format settings, Endianness : Big
Muxing mode : DVD-Video
Duration : 13mn 18s
Bit rate mode : Constant
Bit rate : 1 510 Kbps
Channel(s) : 6 channels
Channel positions : Front: L C R, Side: L R, LFE
Sampling rate : 96.0 KHz / 48.0 KHz
Bit depth : 24 bits
Compression mode : Lossy
Delay relative to video : -441ms
Stream size : 144 MiB (15%)

Audio #2
ID : 189 (0xBD)-160 (0xA0)
Format : PCM
Format settings, Endianness : Big
Format settings, Sign : Signed
Muxing mode : DVD-Video
Duration : 13mn 18s
Bit rate mode : Constant
Bit rate : 1 536 Kbps
Channel(s) : 2 channels
Sampling rate : 48.0 KHz
Bit depth : 16 bits
Delay relative to video : -448ms
Stream size : 146 MiB (16%) `

Скриншоты меню

DVD1

imageimageimage

DVD2

imageimageimageimage

Скриншоты

DVD1

imageimageimageimage

imageimageimageimage

imageimage

DVD2

imageimageimageimage

imageimageimageimage

imageimage

Данная раздача предназначена для ознакомления. image

Ознакомился сам? Не забудь позаботиться о ближнем - помоги ознакомиться и ему, продолжая сидировать. И тогда тебя не посетит Ктулху !

image


More at ibit.to
And ibit.uno
And ibit.am
And ibit.ws

Comments

9 months ago

Delicate Sound Of Thunder - MI General Complete name : D:DownloadsPink Floyd - The Later Years 1987-2019Delicate Sound Of ThunderVIDEOTSVIDEOTS.BUP Format : DVD Video Format profile : Menu File size : 12.0 KiB Overall bit rate mode : VariableVideo ID : 224 (0xE0) Format : MPEG Video Format version : Version 2 Bit rate mode : Variable Width : 720 pixels Height : 480 pixels Display aspect ratio : 16:9 Frame rate : 29.970 fps Standard : NTSC Compression mode : LossyAudio Format : AC-3 Format/Info : Audio Coding 3 Channel(s) : 2 channels Sampling rate : 48.0 KHz Compression mode : LossyText Format : RLE Format/Info : Run-length encoding Bit depth : 2 bitsGeneral Complete name : D:DownloadsPink Floyd - The Later Years 1987-2019Delicate Sound Of ThunderVIDEOTSVIDEOTS.IFO Format : DVD Video Format profile : Menu File size : 12.0 KiB Overall bit rate mode : VariableVideo ID : 224 (0xE0) Format : MPEG Video Format version : Version 2 Bit rate mode : Variable Width : 720 pixels Height : 480 pixels Display aspect ratio : 16:9 Frame rate : 29.970 fps Standard : NTSC Compression mode : LossyAudio Format : AC-3 Format/Info : Audio Coding 3 Channel(s) : 2 channels Sampling rate : 48.0 KHz Compression mode : LossyText Format : RLE Format/Info : Run-length encoding Bit depth : 2 bitsGeneral Complete name : D:DownloadsPink Floyd - The Later Years 1987-2019Delicate Sound Of ThunderVIDEOTSVIDEOTS.VOB Format : MPEG-PS File size : 11.4 MiB Duration : 32s 533ms Overall bit rate mode : Variable Overall bit rate : 2 933 KbpsVideo ID : 224 (0xE0) Format : MPEG Video Format version : Version 2 Format profile : [email protected] Format settings, BVOP : Yes Format settings, Matrix : Custom Format settings, GOP : M=3, N=15 Duration : 32s 533ms Bit rate mode : Variable Bit rate : 2 682 Kbps Maximum bit rate : 8 000 Kbps Width : 720 pixels Height : 480 pixels Display aspect ratio : 16:9 Frame rate : 29.970 fps Standard : NTSC Color space : YUV Chroma subsampling : 4:2:0 Bit depth : 8 bits Scan type : Progressive Compression mode : Lossy Bits/(PixelFrame) : 0.259 Time code of first frame : 00:00:00:00 Time code source : Group of pictures header Stream size : 10.4 MiB (91%)Audio ID : 189 (0xBD)-128 (0x80) Format : AC-3 Format/Info : Audio Coding 3 Mode extension : CM (complete main) Format settings, Endianness : Big Muxing mode : DVD-Video Duration : 32s 448ms Bit rate mode : Constant Bit rate : 192 Kbps Channel(s) : 2 channels Channel positions : Front: L R Sampling rate : 48.0 KHz Bit depth : 16 bits Compression mode : Lossy Stream size : 761 KiB (7%)Text #1 ID : 189 (0xBD)-32 (0x20) Format : RLE Format/Info : Run-length encoding Muxing mode : DVD-VideoText #2 ID : 189 (0xBD)-34 (0x22) Format : RLE Format/Info : Run-length encoding Muxing mode : DVD-VideoMenuGeneral Complete name : D:DownloadsPink Floyd - The Later Years 1987-2019Delicate Sound Of ThunderVIDEOTSVTS010.BUP Format : DVD Video Format profile : Program File size : 76.0 KiB Duration : 1h 55mn Overall bit rate mode : Variable Overall bit rate : 90 bpsVideo ID : 224 (0xE0) Format : MPEG Video Format version : Version 2 Duration : 1h 55mn Bit rate mode : Variable Width : 720 pixels Height : 480 pixels Display aspect ratio : 16:9 Frame rate : 29.970 fps Standard : NTSC Compression mode : LossyAudio #1 ID : 0 (0x0) Format : PCM Duration : 1h 55mn Channel(s) : 2 channels Sampling rate : 48.0 KHz Language : EnglishAudio #2 ID : 137 (0x89) Format : DTS Format/Info : Digital Theater Systems Channel(s) : 6 channels Sampling rate : 0 Hz Compression mode : Lossy Language : EnglishMenu Duration : 1h 55mn 00:00:00.000 : Chapter 1 00:12:21.466 : Chapter 2 00:15:45.299 : Chapter 3 00:21:02.732 : Chapter 4 00:31:26.465 : Chapter 5 00:39:29.331 : Chapter 6 00:48:52.297 : Chapter 7 00:54:47.130 : Chapter 8 01:00:09.229 : Chapter 9 01:02:54.395 : Chapter 10 01:07:40.395 : Chapter 11 01:12:33.995 : Chapter 12 01:20:08.195 : Chapter 13 01:28:28.995 : Chapter 14 01:38:23.361 : Chapter 15 01:44:31.427 : Chapter 16 01:53:37.560 : Chapter 17 List (Audio) : 0 / 1General Complete name : D:DownloadsPink Floyd - The Later Years 1987-2019Delicate Sound Of ThunderVIDEOTSVTS010.IFO Format : DVD Video Format profile : Program File size : 76.0 KiB Duration : 1h 55mn Overall bit rate mode : Variable Overall bit rate : 90 bpsVideo ID : 224 (0xE0) Format : MPEG Video Format version : Version 2 Duration : 1h 55mn Bit rate mode : Variable Width : 720 pixels Height : 480 pixels Display aspect ratio : 16:9 Frame rate : 29.970 fps Standard : NTSC Compression mode : LossyAudio #1 ID : 0 (0x0) Format : PCM Duration : 1h 55mn Channel(s) : 2 channels Sampling rate : 48.0 KHz Language : EnglishAudio #2 ID : 137 (0x89) Format : DTS Format/Info : Digital Theater Systems Channel(s) : 6 channels Sampling rate : 0 Hz Compression mode : Lossy Language : EnglishMenu Duration : 1h 55mn 00:00:00.000 : Chapter 1 00:12:21.466 : Chapter 2 00:15:45.299 : Chapter 3 00:21:02.732 : Chapter 4 00:31:26.465 : Chapter 5 00:39:29.331 : Chapter 6 00:48:52.297 : Chapter 7 00:54:47.130 : Chapter 8 01:00:09.229 : Chapter 9 01:02:54.395 : Chapter 10 01:07:40.395 : Chapter 11 01:12:33.995 : Chapter 12 01:20:08.195 : Chapter 13 01:28:28.995 : Chapter 14 01:38:23.361 : Chapter 15 01:44:31.427 : Chapter 16 01:53:37.560 : Chapter 17 List (Audio) : 0 / 1General Complete name : D:DownloadsPink Floyd - The Later Years 1987-2019Delicate Sound Of ThunderVIDEOTSVTS01_0.VOB Format : MPEG-PS File size : 42.5 MiB Duration : 35s 68ms Overall bit rate mode : Variable Overall bit rate : 10.2 MbpsVideo ID : 224 (0xE0) Format : MPEG Video Format version : Version 2 Format profile : [email protected] Format settings, BVOP : Yes Format settings, Matrix : Default Format settings, GOP : M=3, N=15 Duration : 35s 68ms Bit rate mode : Variable Bit rate : 9 767 Kbps Maximum bit rate : 8 500 Kbps Width : 720 pixels Height : 480 pixels Display aspect ratio : 16:9 Frame rate : 29.970 fps Standard : NTSC Color space : YUV Chroma subsampling : 4:2:0 Bit depth : 8 bits Scan type : Progressive Compression mode : Lossy Bits/(PixelFrame) : 0.943 Time code of first frame : 00:00:00:00 Time code source : Group of pictures header Stream size : 40.8 MiB (96%) Color primaries : BT.470 System M Transfer characteristics : BT.470 System M Matrix coefficients : BT.601Audio ID : 189 (0xBD)-128 (0x80) Format : AC-3 Format/Info : Audio Coding 3 Mode extension : CM (complete main) Format settings, Endianness : Big Muxing mode : DVD-Video Duration : 34s 944ms Bit rate mode : Constant Bit rate : 192 Kbps Channel(s) : 2 channels Channel positions : Front: L R Sampling rate : 48.0 KHz Bit depth : 16 bits Compression mode : Lossy Stream size : 819 KiB (2%)Text #1 ID : 189 (0xBD)-32 (0x20) Format : RLE Format/Info : Run-length encoding Muxing mode : DVD-VideoText #2 ID : 189 (0xBD)-34 (0x22) Format : RLE Format/Info : Run-length encoding Muxing mode : DVD-VideoMenuGeneral Complete name : D:DownloadsPink Floyd - The Later Years 1987-2019Delicate Sound Of ThunderVIDEOTSVTS011.VOB Format : MPEG-PS File size : 1 024 MiB Duration : 14mn 49s Overall bit rate mode : Variable Overall bit rate : 9 659 KbpsVideo ID : 224 (0xE0) Format : MPEG Video Format version : Version 2 Format profile : [email protected] Format settings, BVOP : Yes Format settings, Matrix : Custom Format settings, GOP : Variable Duration : 14mn 49s Bit rate mode : Variable Bit rate : 6 421 Kbps Maximum bit rate : 6 700 Kbps Width : 720 pixels Height : 480 pixels Display aspect ratio : 16:9 Frame rate : 23.976 fps Standard : NTSC Color space : YUV Chroma subsampling : 4:2:0 Bit depth : 8 bits Scan type : Progressive Scan order : 2:3 Pulldown Compression mode : Lossy Bits/(Pixel*Frame) : 0.775 Time code of first frame : 00:00:00:00 Time code source : Group of pictures header Stream size : 681 MiB (66%)Audio #1 ID : 189 (0xBD)-137 (0x89) Format : DTS Format/Info : Digital Theater Systems Format profile : 96/24 / Core Mode : 16 Format settings, Endianness : Big Muxing mode : DVD-Video Duration : 14mn 49s Bit rate mode : Constant Bit rate : 1 510 Kbps Channel(s) : 6 channels Channel positions : Front: L C R, Side: L R, LFE Sampling rate : 96.0 KHz / 48.0 KHz Bit depth : 24 bits Compression mode : Lossy Stream size : 160 MiB (16%)Audio #2 ID : 189 (0xBD)-160 (0xA0) Format : PCM Format settings, Endianness : Big Format settings, Sign : Signed Muxing mode : DVD-Video Duration : 14mn 49s Bit rate mode : Constant Bit rate : 1 536 Kbps Channel(s) : 2 channels Sampling rate : 48.0 KHz Bit depth : 16 bits Stream size : 163 MiB (16%)MenuGeneral Complete name : D:DownloadsPink Floyd - The Later Years 1987-2019Delicate Sound Of ThunderVIDEOTSVTS012.VOB Format : MPEG-PS File size : 1 024 MiB Duration : 14mn 35s Overall bit rate mode : Variable Overall bit rate : 9 812 KbpsVideo ID : 224 (0xE0) Format : MPEG Video Format version : Version 2 Format profile : [email protected] Format settings, BVOP : Yes Format settings, Matrix : Custom Format settings, GOP : Variable Duration : 14mn 34s Bit rate mode : Variable Bit rate : 6 571 Kbps Maximum bit rate : 6 700 Kbps Width : 720 pixels Height : 480 pixels Display aspect ratio : 16:9 Frame rate : 23.976 fps Standard : NTSC Color space : YUV Chroma subsampling : 4:2:0 Bit depth : 8 bits Scan type : Progressive Scan order : 2:3 Pulldown Compression mode : Lossy Bits/(PixelFrame) : 0.793 Time code of first frame : 00:14:48:23 Time code source : Group of pictures header Stream size : 685 MiB (67%)Audio #1 ID : 189 (0xBD)-137 (0x89) Format : DTS Format/Info : Digital Theater Systems Format profile : 96/24 / Core Mode : 16 Format settings, Endianness : Big Muxing mode : DVD-Video Duration : 14mn 35s Bit rate mode : Constant Bit rate : 1 510 Kbps Channel(s) : 6 channels Channel positions : Front: L C R, Side: L R, LFE Sampling rate : 96.0 KHz / 48.0 KHz Bit depth : 24 bits Compression mode : Lossy Delay relative to video : -604ms Stream size : 158 MiB (15%)Audio #2 ID : 189 (0xBD)-160 (0xA0) Format : PCM Format settings, Endianness : Big Format settings, Sign : Signed Muxing mode : DVD-Video Duration : 14mn 35s Bit rate mode : Constant Bit rate : 1 536 Kbps Channel(s) : 2 channels Sampling rate : 48.0 KHz Bit depth : 16 bits Delay relative to video : -607ms Stream size : 160 MiB (16%)MenuGeneral Complete name : D:DownloadsPink Floyd - The Later Years 1987-2019Delicate Sound Of ThunderVIDEOTSVTS01_3.VOB Format : MPEG-PS File size : 1 024 MiB Duration : 14mn 37s Overall bit rate mode : Variable Overall bit rate : 9 784 KbpsVideo ID : 224 (0xE0) Format : MPEG Video Format version : Version 2 Format profile : [email protected] Format settings, BVOP : Yes Format settings, Matrix : Custom Format settings, GOP : M=3, N=12 Duration : 14mn 37s Bit rate mode : Variable Bit rate : 6 543 Kbps Maximum bit rate : 6 700 Kbps Width : 720 pixels Height : 480 pixels Display aspect ratio : 16:9 Frame rate : 23.976 fps Standard : NTSC Color space : YUV Chroma subsampling : 4:2:0 Bit depth : 8 bits Scan type : Progressive Scan order : 2:3 Pulldown Compression mode : Lossy Bits/(PixelFrame) : 0.790 Time code of first frame : 00:29:22:29 Time code source : Group of pictures header Stream size : 685 MiB (67%)Audio #1 ID : 189 (0xBD)-137 (0x89) Format : DTS Format/Info : Digital Theater Systems Format profile : 96/24 / Core Mode : 16 Format settings, Endianness : Big Muxing mode : DVD-Video Duration : 14mn 37s Bit rate mode : Constant Bit rate : 1 510 Kbps Channel(s) : 6 channels Channel positions : Front: L C R, Side: L R, LFE Sampling rate : 96.0 KHz / 48.0 KHz Bit depth : 24 bits Compression mode : Lossy Delay relative to video : -306ms Stream size : 158 MiB (15%)Audio #2 ID : 189 (0xBD)-160 (0xA0) Format : PCM Format settings, Endianness : Big Format settings, Sign : Signed Muxing mode : DVD-Video Duration : 14mn 37s Bit rate mode : Constant Bit rate : 1 536 Kbps Channel(s) : 2 channels Sampling rate : 48.0 KHz Bit depth : 16 bits Delay relative to video : -308ms Stream size : 161 MiB (16%)MenuGeneral Complete name : D:DownloadsPink Floyd - The Later Years 1987-2019Delicate Sound Of ThunderVIDEOTSVTS014.VOB Format : MPEG-PS File size : 1 024 MiB Duration : 14mn 34s Overall bit rate mode : Variable Overall bit rate : 9 824 KbpsVideo ID : 224 (0xE0) Format : MPEG Video Format version : Version 2 Format profile : [email protected] Format settings, BVOP : Yes Format settings, Matrix : Custom Format settings, GOP : M=3, N=12 Duration : 14mn 34s Bit rate mode : Variable Bit rate : 6 583 Kbps Maximum bit rate : 6 700 Kbps Width : 720 pixels Height : 480 pixels Display aspect ratio : 16:9 Frame rate : 23.976 fps Standard : NTSC Color space : YUV Chroma subsampling : 4:2:0 Bit depth : 8 bits Scan type : Progressive Scan order : 2:3 Pulldown Compression mode : Lossy Bits/(Pixel*Frame) : 0.794 Time code of first frame : 00:44:00:09 Time code source : Group of pictures header Stream size : 686 MiB (67%)Audio #1 ID : 189 (0xBD)-137 (0x89) Format : DTS Format/Info : Digital Theater Systems Format profile : 96/24 / Core Mode : 16 Format settings, Endianness : Big Muxing mode : DVD-Video Duration : 14mn 34s Bit rate mode : Constant Bit rate : 1 510 Kbps Channel(s) : 6 channels Channel positions : Front: L C R, Side: L R, LFE Sampling rate : 96.0 KHz / 48.0 KHz Bit depth : 24 bits Compression mode : Lossy Delay relative to video : -553ms Stream size : 157 MiB (15%)Audio #2 ID : 189 (0xBD)-160 (0xA0) Format : PCM Format settings, Endianness : Big Format settings, Sign : Signed Muxing mode : DVD-Video Duration : 14mn 34s Bit rate mode : Constant Bit rate : 1 536 Kbps Channel(s) : 2 channels Sampling rate : 48.0 KHz Bit depth : 16 bits Delay relative to video : -552ms Stream size : 160 MiB (16%)MenuGeneral Complete name : D:DownloadsPink Floyd - The Later Years 1987-2019Delicate Sound Of ThunderVIDEOTSVTS015.VOB Format : MPEG-PS File size : 1 024 MiB Duration : 14mn 44s Overall bit rate mode : Variable Overall bit rate : 9 716 KbpsVideo ID : 224 (0xE0) Format : MPEG Video Format version : Version 2 Format profile : [email protected] Format settings, BVOP : Yes Format settings, Matrix : Custom Format settings, GOP : Variable Duration : 14mn 43s Bit rate mode : Variable Bit rate : 6 477 Kbps Maximum bit rate : 6 700 Kbps Width : 720 pixels Height : 480 pixels Display aspect ratio : 16:9 Frame rate : 23.976 fps Standard : NTSC Color space : YUV Chroma subsampling : 4:2:0 Bit depth : 8 bits Scan type : Progressive Scan order : 2:3 Pulldown Compression mode : Lossy Bits/(PixelFrame) : 0.782 Time code of first frame : 00:58:34:00 Time code source : Group of pictures header Stream size : 682 MiB (67%)Audio #1 ID : 189 (0xBD)-137 (0x89) Format : DTS Format/Info : Digital Theater Systems Format profile : 96/24 / Core Mode : 16 Format settings, Endianness : Big Muxing mode : DVD-Video Duration : 14mn 44s Bit rate mode : Constant Bit rate : 1 510 Kbps Channel(s) : 6 channels Channel positions : Front: L C R, Side: L R, LFE Sampling rate : 96.0 KHz / 48.0 KHz Bit depth : 24 bits Compression mode : Lossy Delay relative to video : -755ms Stream size : 159 MiB (16%)Audio #2 ID : 189 (0xBD)-160 (0xA0) Format : PCM Format settings, Endianness : Big Format settings, Sign : Signed Muxing mode : DVD-Video Duration : 14mn 44s Bit rate mode : Constant Bit rate : 1 536 Kbps Channel(s) : 2 channels Sampling rate : 48.0 KHz Bit depth : 16 bits Delay relative to video : -753ms Stream size : 162 MiB (16%)MenuGeneral Complete name : D:DownloadsPink Floyd - The Later Years 1987-2019Delicate Sound Of ThunderVIDEOTSVTS01_6.VOB Format : MPEG-PS File size : 1 024 MiB Duration : 14mn 31s Overall bit rate mode : Variable Overall bit rate : 9 852 KbpsVideo ID : 224 (0xE0) Format : MPEG Video Format version : Version 2 Format profile : [email protected] Format settings, BVOP : Yes Format settings, Matrix : Custom Format settings, GOP : M=3, N=12 Duration : 14mn 31s Bit rate mode : Variable Bit rate : 6 610 Kbps Maximum bit rate : 6 700 Kbps Width : 720 pixels Height : 480 pixels Display aspect ratio : 16:9 Frame rate : 23.976 fps Standard : NTSC Color space : YUV Chroma subsampling : 4:2:0 Bit depth : 8 bits Scan type : Progressive Scan order : 2:3 Pulldown Compression mode : Lossy Bits/(PixelFrame) : 0.798 Time code of first frame : 01:13:17:01 Time code source : Group of pictures header Stream size : 687 MiB (67%)Audio #1 ID : 189 (0xBD)-137 (0x89) Format : DTS Format/Info : Digital Theater Systems Format profile : 96/24 / Core Mode : 16 Format settings, Endianness : Big Muxing mode : DVD-Video Duration : 14mn 31s Bit rate mode : Constant Bit rate : 1 510 Kbps Channel(s) : 6 channels Channel positions : Front: L C R, Side: L R, LFE Sampling rate : 96.0 KHz / 48.0 KHz Bit depth : 24 bits Compression mode : Lossy Delay relative to video : -596ms Stream size : 157 MiB (15%)Audio #2 ID : 189 (0xBD)-160 (0xA0) Format : PCM Format settings, Endianness : Big Format settings, Sign : Signed Muxing mode : DVD-Video Duration : 14mn 31s Bit rate mode : Constant Bit rate : 1 536 Kbps Channel(s) : 2 channels Sampling rate : 48.0 KHz Bit depth : 16 bits Delay relative to video : -594ms Stream size : 160 MiB (16%)MenuGeneral Complete name : D:DownloadsPink Floyd - The Later Years 1987-2019Delicate Sound Of ThunderVIDEOTSVTS017.VOB Format : MPEG-PS File size : 1 024 MiB Duration : 14mn 34s Overall bit rate mode : Variable Overall bit rate : 9 822 KbpsVideo ID : 224 (0xE0) Format : MPEG Video Format version : Version 2 Format profile : [email protected] Format settings, BVOP : Yes Format settings, Matrix : Custom Format settings, GOP : M=3, N=12 Duration : 14mn 34s Bit rate mode : Variable Bit rate : 6 581 Kbps Maximum bit rate : 6 700 Kbps Width : 720 pixels Height : 480 pixels Display aspect ratio : 16:9 Frame rate : 23.976 fps Standard : NTSC Color space : YUV Chroma subsampling : 4:2:0 Bit depth : 8 bits Scan type : Progressive Scan order : 2:3 Pulldown Compression mode : Lossy Bits/(Pixel*Frame) : 0.794 Time code of first frame : 01:27:48:05 Time code source : Group of pictures header Stream size : 686 MiB (67%)Audio #1 ID : 189 (0xBD)-137 (0x89) Format : DTS Format/Info : Digital Theater Systems Format profile : 96/24 / Core Mode : 16 Format settings, Endianness : Big Muxing mode : DVD-Video Duration : 14mn 34s Bit rate mode : Constant Bit rate : 1 510 Kbps Channel(s) : 6 channels Channel positions : Front: L C R, Side: L R, LFE Sampling rate : 96.0 KHz / 48.0 KHz Bit depth : 24 bits Compression mode : Lossy Delay relative to video : -697ms Stream size : 157 MiB (15%)Audio #2 ID : 189 (0xBD)-160 (0xA0) Format : PCM Format settings, Endianness : Big Format settings, Sign : Signed Muxing mode : DVD-Video Duration : 14mn 34s Bit rate mode : Constant Bit rate : 1 536 Kbps Channel(s) : 2 channels Sampling rate : 48.0 KHz Bit depth : 16 bits Delay relative to video : -687ms Stream size : 160 MiB (16%)MenuGeneral Complete name : D:DownloadsPink Floyd - The Later Years 1987-2019Delicate Sound Of ThunderVIDEOTSVTS018.VOB Format : MPEG-PS File size : 915 MiB Duration : 12mn 59s Overall bit rate mode : Variable Overall bit rate : 9 853 KbpsVideo ID : 224 (0xE0) Format : MPEG Video Format version : Version 2 Format profile : [email protected] Format settings, BVOP : Yes Format settings, Matrix : Custom Format settings, GOP : Variable Duration : 12mn 58s Bit rate mode : Variable Bit rate : 6 611 Kbps Maximum bit rate : 6 700 Kbps Width : 720 pixels Height : 480 pixels Display aspect ratio : 16:9 Frame rate : 23.976 fps Standard : NTSC Color space : YUV Chroma subsampling : 4:2:0 Bit depth : 8 bits Scan type : Progressive Scan order : 2:3 Pulldown Compression mode : Lossy Bits/(Pixel*Frame) : 0.798 Time code of first frame : 01:42:21:24 Time code source : Group of pictures header Stream size : 614 MiB (67%)Audio #1 ID : 189 (0xBD)-137 (0x89) Format : DTS Format/Info : Digital Theater Systems Format profile : 96/24 / Core Mode : 16 Format settings, Endianness : Big Muxing mode : DVD-Video Duration : 12mn 59s Bit rate mode : Constant Bit rate : 1 510 Kbps Channel(s) : 6 channels Channel positions : Front: L C R, Side: L R, LFE Sampling rate : 96.0 KHz / 48.0 KHz Bit depth : 24 bits Compression mode : Lossy Delay relative to video : -606ms Stream size : 140 MiB (15%)Audio #2 ID : 189 (0xBD)-160 (0xA0) Format : PCM Format settings, Endianness : Big Format settings, Sign : Signed Muxing mode : DVD-Video Duration : 12mn 59s Bit rate mode : Constant Bit rate : 1 536 Kbps Channel(s) : 2 channels Sampling rate : 48.0 KHz Bit depth : 16 bits Delay relative to video : -600ms Stream size : 143 MiB (16%)

Files

Pink Floyd - The Later Years 1987-2019Delicate Sound Of ThunderVIDEO_TSVTS_01_2.VOB 1.1 GB
Pink Floyd - The Later Years 1987-2019Delicate Sound Of ThunderVIDEO_TSVTS_01_1.VOB 1.1 GB
Pink Floyd - The Later Years 1987-2019Delicate Sound Of ThunderVIDEO_TSVTS_01_6.VOB 1.1 GB
Pink Floyd - The Later Years 1987-2019Delicate Sound Of ThunderVIDEO_TSVTS_01_5.VOB 1.1 GB
Pink Floyd - The Later Years 1987-2019Delicate Sound Of ThunderVIDEO_TSVTS_01_4.VOB 1.1 GB
Pink Floyd - The Later Years 1987-2019Delicate Sound Of ThunderVIDEO_TSVTS_01_7.VOB 1.1 GB
Pink Floyd - The Later Years 1987-2019Delicate Sound Of ThunderVIDEO_TSVTS_01_3.VOB 1.1 GB
Pink Floyd - The Later Years 1987-2019Delicate Sound Of ThunderVIDEO_TSVTS_01_8.VOB 960 MB
Pink Floyd - The Later Years 1987-2019Delicate Sound Of ThunderVIDEO_TSVTS_01_0.VOB 44 MB
Pink Floyd - The Later Years 1987-2019Delicate Sound Of ThunderVIDEO_TSVIDEO_TS.VOB 12 MB
Pink Floyd - The Later Years 1987-2019Delicate Sound Of ThunderVIDEO_TSVTS_01_0.BUP 78 kB
Pink Floyd - The Later Years 1987-2019Delicate Sound Of ThunderVIDEO_TSVTS_01_0.IFO 78 kB
Pink Floyd - The Later Years 1987-2019Delicate Sound Of ThunderVIDEO_TSVIDEO_TS.IFO 12 kB
Pink Floyd - The Later Years 1987-2019Delicate Sound Of ThunderVIDEO_TSVIDEO_TS.BUP 12 kB
Pink Floyd - The Later Years 1987-2019PulseDVD1VIDEO_TSVTS_01_1.VOB 1.1 GB
Pink Floyd - The Later Years 1987-2019PulseDVD1VIDEO_TSVTS_01_4.VOB 1.1 GB
Pink Floyd - The Later Years 1987-2019PulseDVD1VIDEO_TSVTS_01_3.VOB 1.1 GB
Pink Floyd - The Later Years 1987-2019PulseDVD1VIDEO_TSVTS_01_2.VOB 1.1 GB
Pink Floyd - The Later Years 1987-2019PulseDVD1VIDEO_TSVTS_01_5.VOB 1.1 GB
Pink Floyd - The Later Years 1987-2019PulseDVD1VIDEO_TSVTS_01_0.VOB 82 MB
Pink Floyd - The Later Years 1987-2019PulseDVD1VIDEO_TSVTS_01_6.VOB 50 MB
Pink Floyd - The Later Years 1987-2019PulseDVD1VIDEO_TSVIDEO_TS.VOB 31 MB
Pink Floyd - The Later Years 1987-2019PulseDVD1VIDEO_TSVTS_01_0.BUP 55 kB
Pink Floyd - The Later Years 1987-2019PulseDVD1VIDEO_TSVTS_01_0.IFO 55 kB
Pink Floyd - The Later Years 1987-2019PulseDVD1VIDEO_TSVIDEO_TS.IFO 12 kB
Pink Floyd - The Later Years 1987-2019PulseDVD1VIDEO_TSVIDEO_TS.BUP 12 kB
Pink Floyd - The Later Years 1987-2019PulseDVD2VIDEO_TSVTS_01_2.VOB 1.1 GB
Pink Floyd - The Later Years 1987-2019PulseDVD2VIDEO_TSVTS_01_4.VOB 1.1 GB
Pink Floyd - The Later Years 1987-2019PulseDVD2VIDEO_TSVTS_01_3.VOB 1.1 GB
Pink Floyd - The Later Years 1987-2019PulseDVD2VIDEO_TSVTS_01_1.VOB 1.1 GB
Pink Floyd - The Later Years 1987-2019PulseDVD2VIDEO_TSVTS_01_5.VOB 989 MB
Pink Floyd - The Later Years 1987-2019PulseDVD2VIDEO_TSVTS_01_0.VOB 109 MB
Pink Floyd - The Later Years 1987-2019PulseDVD2VIDEO_TSVIDEO_TS.VOB 31 MB
Pink Floyd - The Later Years 1987-2019PulseDVD2VIDEO_TSVTS_01_0.BUP 55 kB
Pink Floyd - The Later Years 1987-2019PulseDVD2VIDEO_TSVTS_01_0.IFO 55 kB
Pink Floyd - The Later Years 1987-2019PulseDVD2VIDEO_TSVIDEO_TS.IFO 12 kB
Pink Floyd - The Later Years 1987-2019PulseDVD2VIDEO_TSVIDEO_TS.BUP 12 kB

Stream

Downloading Seeding Pink Floyd - The Later Years 1987-2019 from to 0 peers.
of
0 b/s / ↗0 b/s