• 3
  • 1
  • 94
Sponsored Downloadondemand_video
82%

Penny Dreadful (2013)

  • Comedy Crime
  • A novice crook gets involved in a ransom plot, but winds up kidnapping the wrong girl.

    English

    Description

    Release: Penny.Dreadful.2013.720p.WEBRipx264.AAC.HORiZON-ArtSubs

    image

    IMDB: https://www.imdb.com/title/tt2458390/

    **Subtitle: None

    Plot: A novice crook gets involved in a ransom plot, but winds up kidnapping the wrong girl.**

    **Complete name: Penny.Dreadful.2013.720p.WEBRipx264.AAC.HORiZON-ArtSubs

    Format                      : MPEG-4

    Format profile              : Base Media

    Codec ID                    : isom (isom/iso2/avc1/mp41)

    File size                   : 265 MiB

    Duration                    : 17 min 18 s

    Overall bit rate            : 2 137 kb/s

    Writing application         : Lavf58.18.104

    Video

    ID                          : 1

    Format                      : AVC

    Format/Info                 : Advanced Video Codec

    Format profile              : [email protected]
    Format settings             : CABAC / 5 Ref Frames

    Format settings, CABAC      : Yes

    Format settings, ReFrames   : 5 frames

    Codec ID                    : avc1

    Codec ID/Info               : Advanced Video Coding

    Duration                    : 17 min 18 s

    Bit rate                    : 2 000 kb/s

    Width                       : 1 280 pixels

    Height                      : 544 pixels

    Display aspect ratio        : 2.35:1

    Frame rate mode             : Variable

    Frame rate                  : 30.000 FPS

    Minimum frame rate          : 29.990 FPS

    Maximum frame rate          : 30.010 FPS

    Color space                 : YUV

    Chroma subsampling          : 4:2:0

    Bit depth                   : 8 bits

    Scan type                   : Progressive

    Bits/(Pixel*Frame)          : 0.096

    Stream size                 : 248 MiB (94%)

    Writing library             : x264 core 146 r2538 121396c

    Encoding settings           : cabac=1 / ref=5 / deblock=1:0:0 / analyse=0x3:0x113 / me=umh / subme=8 / psy=1 / psyrd=1.00:0.00 / mixedref=1 / merange=8 / chromame=1 / trellis=1 / 8x8dct=1 / cqm=0 / deadzone=21,11 / fastpskip=1 / chromaqpoffset=-2 / threads=4 / lookaheadthreads=1 / slicedthreads=0 / nr=0 / decimate=1 / interlaced=0 / bluraycompat=0 / constrainedintra=0 / bframes=3 / bpyramid=2 / badapt=2 / bbias=0 / direct=3 / weightb=1 / opengop=0 / weightp=2 / keyint=300 / keyintmin=30 / scenecut=40 / intrarefresh=0 / rclookahead=50 / rc=2pass / mbtree=1 / bitrate=2000 / ratetol=1.0 / qcomp=0.60 / qpmin=0 / qpmax=69 / qpstep=4 / cplxblur=20.0 / qblur=0.5 / vbvmaxrate=3000 / vbvbufsize=8000 / nalhrd=none / filler=0 / ipratio=1.40 / aq=1:1.00

    Audio

    ID                          : 2

    Format                      : AAC

    Format/Info                 : Advanced Audio Codec

    Format profile              : LC

    Codec ID                    : mp4a-40-2

    Duration                    : 17 min 18 s

    Bit rate mode               : Constant

    Bit rate                    : 127 kb/s

    Channel(s)                  : 2 channels

    Channel positions           : Front: L R

    Sampling rate               : 44.1 kHz

    Frame rate                  : 43.066 FPS (1024 SPF)

    Compression mode            : Lossy

    Stream size                 : 15.7 MiB (6%)

    Default                     : Yes

    Alternate group             : 1

    **

    SCREENSHOTS:
    image
    image


    More at ibit.to
    And ibit.uno
    And ibit.ws

    Reviews

    Comments

    Files

    Penny.Dreadful.2013.720p.WEBRipx264.AAC.HORiZON-ArtSubs.mp4 265 MB

    Stream

    Downloading Seeding Penny.Dreadful.2013.720p.WEBRipx264.AAC.HORiZON-ArtSubs.mp4 from to 0 peers.
    of
    0 b/s / ↗0 b/s