• 0
  • 0
Anonymous Downloadondemand_video
  • Pawo 2016 TIBETAN (2160p x265 10bit S92 Joy).mkv
  • 5.4 GB
  • UTR
  • Pawo 2016 TIBETAN 2160p x265 10bit S92 Joy mkv
  • German
  • HEVC/x265
Warning! Use a VPN When Downloading Torrents!
Your IP Address is ,
Your Internet Provider can see when you download torrents! Hide your IP ADDRESS with a VPN
We strongly recommend Trust.Zone VPN to hide your torrenting. It's FREE!
DOWNLOAD VPN

Description

imageimage

imageimage

imageimage

imageimage

** Media Information **

General

Format                                   : Matroska

Format version                           : Version 4 / Version 2

File size                                : 5.44 GiB

Duration                                 : 2 h 1 min

Overall bit rate                         : 6 417 kb/s

Movie name                               : Pawo 2016 TIBETAN  (2160p x265 10bit Joy)

Encoded date                             : UTC 2018-12-14 07:59:58

Writing application                      : mkvmerge v29.0.0 ('Like It Or Not') 64-bit

Writing library                          : libebml v1.3.6 + libmatroska v1.4.9

Writing frontend                         : StaxRip v1.8.2.0, Encoded by JoyBell

Video

ID                                       : 1

Format                                   : HEVC

Format/Info                              : High Efficiency Video Coding

Format profile                           : Main [email protected]@Main

Codec ID                                 : V_MPEGH/ISO/HEVC

Duration                                 : 2 h 1 min

Bit rate                                 : 5 994 kb/s

Width                                    : 3 840 pixels

Height                                   : 1 600 pixels

Display aspect ratio                     : 2.40:1

Frame rate mode                          : Constant

Frame rate                               : 24.000 FPS

Color space                              : YUV

Chroma subsampling                       : 4:2:0

Bit depth                                : 10 bits

Bits/(Pixel*Frame)                       : 0.041

Stream size                              : 5.08 GiB (93%)

Writing library                          : x265 2.8+19-bcdc610cf5f0:[Windows][MSVC 1914][64 bit] 10bit

Encoding settings                        : cpuid=1111039 / frame-threads=4 / numa-pools=16 / wpp / no-pmode / no-pme / no-psnr / ssim / log-level=2 / input-csp=1 / input-res=3840x1600 / interlace=0 / total-frames=174795 / level-idc=0 / high-tier=1 / uhd-bd=0 / ref=3 / no-allow-non-conformance / no-repeat-headers / annexb / no-aud / no-hrd / info / hash=0 / no-temporal-layers / open-gop / min-keyint=24 / keyint=250 / gop-lookahead=0 / bframes=8 / b-adapt=2 / b-pyramid / bframe-bias=0 / rc-lookahead=20 / lookahead-slices=8 / scenecut=40 / radl=0 / no-intra-refresh / ctu=64 / min-cu-size=8 / no-rect / no-amp / max-tu-size=32 / tu-inter-depth=1 / tu-intra-depth=1 / limit-tu=0 / rdoq-level=1 / dynamic-rd=4.00 / ssim-rd / signhide / no-tskip / nr-intra=0 / nr-inter=0 / no-constrained-intra / strong-intra-smoothing / max-merge=2 / limit-refs=3 / no-limit-modes / me=1 / subme=2 / merange=57 / temporal-mvp / weightp / weightb / analyze-src-pics / deblock=0:0 / sao / sao-non-deblock / rd=3 / no-early-skip / rskip / no-fast-intra / no-tskip-fast / no-cu-lossless / b-intra / no-splitrd-skip / rdpenalty=0 / psy-rd=0.00 / psy-rdoq=0.00 / no-rd-refine / no-lossless / cbqpoffs=0 / crqpoffs=0 / rc=abr / bitrate=6000 / qcomp=0.60 / qpstep=4 / stats-write=0 / stats-read=2 / cplxblur=20.0 / qblur=0.5 / vbv-maxrate=12000 / vbv-bufsize=24000 / vbv-init=0.9 / ipratio=1.40 / pbratio=1.30 / aq-mode=3 / aq-strength=1.00 / cutree / zone-count=0 / no-strict-cbr / qg-size=32 / no-rc-grain / qpmax=69 / qpmin=0 / no-const-vbv / sar=0 / overscan=0 / videoformat=5 / range=0 / colorprim=2 / transfer=2 / colormatrix=2 / chromaloc=0 / display-window=0 / max-cll=0,0 / min-luma=0 / max-luma=1023 / log2-max-poc-lsb=8 / vui-timing-info / vui-hrd-info / slices=1 / no-opt-qp-pps / no-opt-ref-list-length-pps / multi-pass-opt-rps / scenecut-bias=0.05 / no-opt-cu-delta-qp / no-aq-motion / no-hdr / no-hdr-opt / no-dhdr10-opt / no-idr-recovery-sei / analysis-reuse-level=10 / scale-factor=0 / refine-intra=0 / refine-inter=0 / refine-mv=0 / limit-sao / ctu-info=0 / no-lowpass-dct / refine-mv-type=0 / copy-pic=1 / max-ausize-factor=1.0 / no-dynamic-refine / no-single-sei

Default                                  : Yes

Forced                                   : No

Audio #1

ID                                       : 2

Format                                   : AAC

Format/Info                              : Advanced Audio Codec

Format profile                           : LC

Codec ID                                 : A_AAC

Duration                                 : 2 h 1 min

Bit rate                                 : 316 kb/s

Channel(s)                               : 6 channels

Channel positions                        : Front: L C R, Side: L R, LFE

Sampling rate                            : 48.0 kHz

Frame rate                               : 46.875 FPS (1024 spf)

Compression mode                         : Lossy

Delay relative to video                  : 9 ms

Stream size                              : 274 MiB (5%)

Language                                 : Tibetan

Default                                  : No

Forced                                   : No

Audio #2

ID                                       : 3

Format                                   : AAC

Format/Info                              : Advanced Audio Codec

Format profile                           : LC

Codec ID                                 : A_AAC

Duration                                 : 2 h 1 min

Bit rate                                 : 89.6 kb/s

Channel(s)                               : 2 channels

Channel positions                        : Front: L R

Sampling rate                            : 48.0 kHz

Frame rate                               : 46.875 FPS (1024 spf)

Compression mode                         : Lossy

Delay relative to video                  : 9 ms

Stream size                              : 77.7 MiB (1%)

Language                                 : German

Default                                  : No

Forced                                   : No

Subtitle #1

ID                                       : 4

Format                                   : PGS

Muxing mode                              : zlib

Codec ID                                 : S_HDMV/PGS

Codec ID/Info                            : Picture based subtitle format used on BDs/HD-DVDs

Duration                                 : 1 h 57 min

Bit rate                                 : 28.4 kb/s

Count of elements                        : 2218

Stream size                              : 23.8 MiB (0%)

Language                                 : English

Default                                  : No

Forced                                   : Yes

Subtitle #2

ID                                       : 5

Format                                   : VobSub

Muxing mode                              : zlib

Codec ID                                 : S_VOBSUB

Codec ID/Info                            : Picture based subtitle format used on DVDs

Duration                                 : 1 h 56 min

Bit rate                                 : 6 862 b/s

Count of elements                        : 1097

Stream size                              : 5.71 MiB (0%)

Language                                 : German

Default                                  : No

Forced                                   : No

Subtitle #3

ID                                       : 6

Format                                   : VobSub

Muxing mode                              : zlib

Codec ID                                 : S_VOBSUB

Codec ID/Info                            : Picture based subtitle format used on DVDs

Duration                                 : 1 h 29 min

Bit rate                                 : 279 b/s

Count of elements                        : 40

Stream size                              : 183 KiB (0%)

Language                                 : German

Default                                  : No

Forced                                   : No

Subtitle #4

ID                                       : 7

Format                                   : VobSub

Muxing mode                              : zlib

Codec ID                                 : S_VOBSUB

Codec ID/Info                            : Picture based subtitle format used on DVDs

Duration                                 : 1 h 57 min

Bit rate                                 : 5 117 b/s

Count of elements                        : 978

Stream size                              : 4.29 MiB (0%)

Language                                 : English

Default                                  : No

Forced                                   : No

Menu

00:00:00.000                             : en:Chapter 01

00:04:23.583                             : en:Chapter 02

00:13:00.791                             : en:Chapter 03

00:20:43.458                             : en:Chapter 04

00:27:50.000                             : en:Chapter 05

00:31:00.250                             : en:Chapter 06

00:39:14.541                             : en:Chapter 07

00:55:52.333                             : en:Chapter 08

01:21:33.125                             : en:Chapter 09

01:32:58.833                             : en:Chapter 10

01:40:51.333                             : en:Chapter 11

01:54:05.750                             : en:Chapter 12

** Source Information **

Release: Pawo.2016.TIBETAN.2160p.BluRay.HEVC.DTS-HD.MA.5.1-PRECELL  (BluRay RAW 59.0 GB)


More at ibit.to
And ibit.uno
And ibit.ws

Comments

Files

Pawo 2016 TIBETAN (2160p x265 10bit S92 Joy).mkv 5.4 GB
Pawo 2016 TIBETAN (2160p x265 10bit S92 Joy).mkv 5.4 GB

Stream

Downloading Seeding Pawo 2016 TIBETAN (2160p x265 10bit S92 Joy).mkv from to 0 peers.
of
0 b/s / ↗0 b/s