• -
  • -
  • done
Anonymous Download
  • Paul McCartney - Paul Is Live (Remastered) (2019) [24-96]
  • 1.7 GB
  • stephenten
  • Paul McCartney Live Remastered 2019
  • Hi-Res stereo и многоканальная
Warning! Use a VPN When Downloading Torrents!
Your IP Address is ,
Your Internet Provider can see when you download torrents! Hide your IP ADDRESS with a VPN
We strongly recommend Trust.Zone VPN to hide your torrenting. It's FREE!
DOWNLOAD VPN

Description

Paul McCartney - Paul Is Live



image

Формат записи/Источник записи : [TR24][OF]

Наличие водяных знаков : Нет

Издание : Remastered

Год издания/переиздания диска : 1993/2019

Жанр : Rock

Издатель (лейбл) : Paul McCartney Catalog

Продолжительность : 01:17:06

Наличие сканов в содержимом раздачи : Только обложка альбома

Контейнер : FLAC (*.flac)

Тип рипа : tracks

Разрядность : 24/96

Формат : PCM

Количество каналов : 2.0

Источник (релизер) : qobuz.com


Треклист:

1 Drive My Car (Live In Kansas City)
2 Let Me Roll It (Live In Boulder)
3 Looking For Changes (Live In Kansas City)
4 Peace In The Neighbourhood (Live In Boulder)
5 All My Loving (Live In New York)
6 Robbie's Bit (Thanks Chet) (Live In Charlotte)
7 Good Rockin' Tonight (Live In Charlotte)
8 We Can Work It Out (Live In New York)
9 Hope Of Deliverance (Live In New York)
10 Michelle (Live In Boulder)
11 Biker Like An Icon (Live In Boulder)
12 Here, There And Everywhere (Live In Parramatta, Sydney)
13 My Love (Live In San Antonio)
14 Magical Mystery Tour (Live In Parramatta, Sydney)
15 C’Mon People (Live In Kansas City)
16 Lady Madonna (Live In Atlanta)
17 Paperback Writer (Live In Charlotte)
18 Penny Lane (Live In Boulder)
19 Live And Let Die (Live In Boulder)
20 Kansas City (Live In Kansas City)
21 Welcome To Soundcheck
22 Hotel In Benidorm (Live In Boulder)
23 I Wanna Be Your Man (Live In Parramatta, Sydney)
24 A Fine Day (Live In New York)

Состав:

Paul McCartney , lead vocals, acoustic, electric and bass guitars, piano

Linda McCartney , backing vocals, keyboards, percussion, autoharp

Hamish Stuart , acoustic and electric guitars, acoustic and electric bass guitars, backing vocals

Robbie McIntosh , acoustic and electric guitars, backing vocals

Paul 'Wix' Wickens , keyboards, accordion, acoustic guitar, percussion, backing vocals

Blair Cunningham , drums, percussion

Лог проверки качества

`foobar2000 1.4 / Dynamic Range Meter 1.1.1
log date: 2019-07-12 05:54:23


Analyzed: Paul McCartney / Paul Is Live
DR Peak RMS Duration Track

DR9 -0.70 dB -10.89 dB 2:33 01, 01-Drive My Car (Live In Kansas City)
DR9 -0.42 dB -11.47 dB 4:12 02, 02-Let Me Roll It (Live In Boulder)
DR7 -1.10 dB -9.64 dB 2:41 03, 03-Looking For Changes (Live In Kansas City)
DR10 -0.60 dB -11.62 dB 4:54 04, 04-Peace In The Neighbourhood (Live In Boulder)
DR9 -0.60 dB -10.55 dB 2:17 05, 05-All My Loving (Live In New York)
DR13 -1.33 dB -17.98 dB 1:57 06, 06-Robbie's Bit (Thanks Chet) (Live In Charlotte)
DR11 -0.60 dB -12.26 dB 2:52 07, 07-Good Rockin' Tonight (Live In Charlotte)
DR10 -0.60 dB -12.03 dB 2:40 08, 08-We Can Work It Out (Live In New York)
DR11 -0.60 dB -11.84 dB 3:33 09, 09-Hope Of Deliverance (Live In New York)
DR12 -0.60 dB -13.86 dB 2:57 10, 10-Michelle (Live In Boulder)
DR10 -0.60 dB -10.99 dB 3:40 11, 11-Biker Like An Icon (Live In Boulder)
DR11 -0.60 dB -13.32 dB 2:30 12, 12-Here, There And Everywhere (Live In Parramatta, Sydney)
DR10 -0.60 dB -12.27 dB 4:07 13, 13-My Love (Live In San Antonio)
DR10 -0.60 dB -11.23 dB 3:15 14, 14-Magical Mystery Tour (Live In Parramatta, Sydney)
DR9 -0.60 dB -10.76 dB 5:38 15, 15-C’Mon People (Live In Kansas City)
DR10 -0.60 dB -11.18 dB 2:31 16, 16-Lady Madonna (Live In Atlanta)
DR10 -0.60 dB -11.07 dB 2:37 17, 17-Paperback Writer (Live In Charlotte)
DR11 -0.60 dB -12.02 dB 3:02 18, 18-Penny Lane (Live In Boulder)
DR11 -0.60 dB -13.06 dB 3:53 19, 19-Live And Let Die (Live In Boulder)
DR10 -0.60 dB -11.06 dB 3:54 20, 20-Kansas City (Live In Kansas City)
DR10 -3.46 dB -22.45 dB 0:41 21, 21-Welcome To Soundcheck (Live)
DR13 -0.60 dB -15.69 dB 2:01 22, 22-Hotel In Benidorm (Soundcheck) (Live In Boulder)
DR9 -1.30 dB -12.21 dB 2:37 23, 23-I Wanna Be Your Man (Soundcheck) (Live In Parramatta, Sydney)

DR10 -0.60 dB -11.78 dB 6:20 24, 24-A Fine Day (Soundcheck) (Live In New York)

Number of tracks: 24
Official DR value: DR10
Samplerate: 96000 Hz
Channels: 2
Bits per sample: 24
Bitrate: 2847 kbps
Codec: FLAC
================================================================================ `

Об альбоме (сборнике)

Newly remastered at Abbey Road Studios: Paul Is Live, recorded during the tour in support of Off The Ground, was Paul's fifth live album and is famous for its src's double meaning and the rumour-scotching cover art. Ever since the 1969 release of Abbey Road, there had been hoax-fuelled stories of Paul’s untimely death. The new src was a way of saying that this was most definitely not the case. The artwork is a play on the famous Abbey Road cover, with Paul crossing that same street but wearing shoes and using his left hand this time. (Originally, his bare feet and the holding of a cigarette in his right hand had supposedly been clues that it wasn't him on the cover.) As well as a raft of solo, Wings and Beatles favourites, the album also offers an insight into the band's sound checks, the final three songs all being improvised during rehearsals in various locations on the tour.


More at ibit.to
And ibit.uno
And ibit.ws

Comments

Files

Paul McCartney - Paul Is Live (Remastered) (2019) [24-96]01. Drive My Car (Live In Kansas City).flac 55 MB
Paul McCartney - Paul Is Live (Remastered) (2019) [24-96]02. Let Me Roll It (Live In Boulder).flac 90 MB
Paul McCartney - Paul Is Live (Remastered) (2019) [24-96]03. Looking For Changes (Live In Kansas City).flac 59 MB
Paul McCartney - Paul Is Live (Remastered) (2019) [24-96]04. Peace In The Neighbourhood (Live In Boulder).flac 104 MB
Paul McCartney - Paul Is Live (Remastered) (2019) [24-96]05. All My Loving (Live In New York).flac 51 MB
Paul McCartney - Paul Is Live (Remastered) (2019) [24-96]06. Robbie's Bit (Thanks Chet) (Live In Charlotte).flac 39 MB
Paul McCartney - Paul Is Live (Remastered) (2019) [24-96]07. Good Rockin' Tonight (Live In Charlotte).flac 62 MB
Paul McCartney - Paul Is Live (Remastered) (2019) [24-96]08. We Can Work It Out (Live In New York).flac 58 MB
Paul McCartney - Paul Is Live (Remastered) (2019) [24-96]09. Hope Of Deliverance (Live In New York).flac 79 MB
Paul McCartney - Paul Is Live (Remastered) (2019) [24-96]10. Michelle (Live In Boulder).flac 62 MB
Paul McCartney - Paul Is Live (Remastered) (2019) [24-96]11. Biker Like An Icon (Live In Boulder).flac 84 MB
Paul McCartney - Paul Is Live (Remastered) (2019) [24-96]12. Here, There And Everywhere (Live In Parramatta, Sydney).flac 54 MB
Paul McCartney - Paul Is Live (Remastered) (2019) [24-96]13. My Love (Live In San Antonio).flac 87 MB
Paul McCartney - Paul Is Live (Remastered) (2019) [24-96]14. Magical Mystery Tour (Live In Parramatta, Sydney).flac 72 MB
Paul McCartney - Paul Is Live (Remastered) (2019) [24-96]15. C’Mon People (Live In Kansas City).flac 123 MB
Paul McCartney - Paul Is Live (Remastered) (2019) [24-96]16. Lady Madonna (Live In Atlanta).flac 56 MB
Paul McCartney - Paul Is Live (Remastered) (2019) [24-96]17. Paperback Writer (Live In Charlotte).flac 58 MB
Paul McCartney - Paul Is Live (Remastered) (2019) [24-96]18. Penny Lane (Live In Boulder).flac 65 MB
Paul McCartney - Paul Is Live (Remastered) (2019) [24-96]19. Live And Let Die (Live In Boulder).flac 84 MB
Paul McCartney - Paul Is Live (Remastered) (2019) [24-96]20. Kansas City (Live In Kansas City).flac 86 MB
Paul McCartney - Paul Is Live (Remastered) (2019) [24-96]21. Welcome To Soundcheck (Live).flac 14 MB
Paul McCartney - Paul Is Live (Remastered) (2019) [24-96]22. Hotel In Benidorm (Soundcheck) (Live In Boulder).flac 43 MB
Paul McCartney - Paul Is Live (Remastered) (2019) [24-96]23. I Wanna Be Your Man (Soundcheck) (Live In Parramatta, Sydney).flac 56 MB
Paul McCartney - Paul Is Live (Remastered) (2019) [24-96]24. A Fine Day (Soundcheck) (Live In New York).flac 135 MB
Paul McCartney - Paul Is Live (Remastered) (2019) [24-96]cover.jpg 501 kB
Paul McCartney - Paul Is Live (Remastered) (2019) [24-96]foo_dr.txt 2.9 kB

Stream

Downloading Seeding Paul McCartney - Paul Is Live (Remastered) (2019) [24-96] from to 0 peers.
of
0 b/s / ↗0 b/s