• 1
  • 1
Sponsored Downloadondemand_video
  • Past.Life.S01E02.Dead.Man.Talking.HDTV.XviD-FQM
  • 350 MB
  • JoeBonanno
  • Past Life S01E02 Dead Talking HDTV XviD
  • English
  • TV shows
50%

Past Life: Dead Man Talking(2010)

  • 1 2
  • Sci-Fi & Fantasy Drama
  • The team meets Corrine, a young woman dealing with addiction whose regression episodes include graphic details of a violent crime scene. Meanwhile, Kate and Price travel to Florida in hopes of uncovering Corrine's role in the crime, which could also help save an innocent death row inmate from execution.

    English

    Description

    Info.

    General
    Format : AVI
    Format/Info : Audio Video Interleave
    File size : 350 MiB
    Duration : 43mn 11s
    Overall bit rate : 1 134 Kbps
    Writing application : transcode-1.0.4

    Video
    ID : 0
    Format : MPEG-4 Visual
    Format profile : [email protected]
    Format settings, BVOP : Yes
    Format settings, QPel : No
    Format settings, GMC : No warppoints
    Format settings, Matrix : Default (H.263)
    Codec ID : XVID
    Codec ID/Hint : XviD
    Duration : 43mn 11s
    Bit rate : 974 Kbps
    Width : 624 pixels
    Height : 352 pixels
    Display aspect ratio : 16:9
    Frame rate : 23.976 fps
    Resolution : 24 bits
    Colorimetry : 4:2:0
    Scan type : Progressive
    Bits/(Pixel*Frame) : 0.185
    Stream size : 301 MiB (86%)
    Writing library : XviD 1.2.1 (UTC 2008-12-04)

    Audio
    ID : 1
    Format : MPEG Audio
    Format version : Version 1
    Format profile : Layer 3
    Codec ID : 55
    Codec ID/Hint : MP3
    Duration : 43mn 11s
    Bit rate mode : Variable
    Bit rate : 128 Kbps
    Channel(s) : 2 channels
    Sampling rate : 48.0 KHz
    Resolution : 16 bits
    Stream size : 45.4 MiB (13%)
    Alignment : Aligned on interleaves
    Interleave, duration : 24 ms (0.58 video frame)

    ******************************************************************
    ScreenShots
    1. http://img20.imageshack.us/img20/7797/54219317.jpg
    2. http://img515.imageshack.us/img515/7206/82372967.jpg
    3. http://img717.imageshack.us/img717/4470/21843011.jpg
    4. http://img197.imageshack.us/img197/1028/63244067.jpg
    ***************************************************************
    IMDB Link: http://www.imdb.com/title/tt1396401/
    ***************************************************************
    Genre: Thriller, Drama
    ***************************************************************
    Plot:-
    Have you ever experienced deja vu or met someone you thought seemed familiar? Do you believe in karma, fate or love at first sight? Have you ever had an out-of-body experience?

    From writer David Hudgins ("Friday Night Lights"), and inspired by the book "The Reincarnationist" by M.J. Rose, comes PAST LIFE, a new drama series that investigates the world of the unexplained through the eyes of a doctor and a former detective who must work together to solve decades-old mysteries.

    DR. KATE MCGINN (Kelli Giddish) is not your typical psychologist. Confident, outspoken and highly educated, she works at The Talmadge Center for Behavioral Health in New York City, a world-renowned institute dedicated to the study of the science of the soul. After experiencing a past-life regression in her 20s, Kate became a believer in reincarnation. Using therapy and her natural gift for reading people, Kate helps solve the mysteries of her troubled clients by investigating their consciousness. She believes there are levels of consciousness and explanations for human behavior that science can't begin to explain. Accustomed to skeptics, but not bothered by them, Kate is an unapologetic believer and a force of nature who marches to the beat of her own drum.

    Her partner, PRICE WHATLEY (Nicholas Bishop), is a different story. A former NYPD homicide detective, pragmatic and cynical, Price is a damaged soul who constantly battles grief and guilt over the accidental death of his wife. Price feels that Kate, though not certifiable, certainly operates on the fringes of science. It's a volatile relationship, but with Price's solid detective skills and Kate's penchant for out-of-the-box thinking, together they make a formidable, albeit somewhat dysfunctional, team.

    An emotional thrill ride, each episode finds Price and Kate working with their colleagues to unravel a new mystery. DR. MALACHI TALMADGE (Richard Schiff) is Kate's mentor and the center's namesake, an avuncular but gruff elder statesman who is a legend in the field of cognitive research. DR. RISHI KARNA (Ravi Patel) is the rookie of the group, an energetic M.D. who loves bad TV, Cuban jazz and driving everyone crazy.
    ******************************************************************
    Download, Comment, Seed and then Enjoy


    More at ibit.to
    And ibit.uno
    And ibit.ws

    Reviews

    Comments

    Files

    past.life.s01e02.hdtv.xvid-fqm.avi 350 MB
    Torrent downloaded from Demonoid.com.txt 47 B

    Stream

    Downloading Seeding Past.Life.S01E02.Dead.Man.Talking.HDTV.XviD-FQM from to 0 peers.
    of
    0 b/s / ↗0 b/s