• 0
  • 0
  • done
Anonymous Download
  • P!nk - Hurts 2B Human (2019) [SICP-6087]
  • 685 MB
  • alxsha
  • Hurts Human 2019 SICP 6087
  • Зарубежная поп-музыка
Warning! Use a VPN When Downloading Torrents!
Your IP Address is ,
Your Internet Provider can see when you download torrents! Hide your IP ADDRESS with a VPN
We strongly recommend Trust.Zone VPN to hide your torrenting. It's FREE!
DOWNLOAD VPN

Description

P!nk - Hurts 2B Human

image

Жанр : Pop

Носитель : CD

Страна-производитель диска (релиза) : Japan

Год издания : 2019

Издатель (лейбл) : RCA

Номер по каталогу : SICP-6087

Аудиокодек : FLAC (*.flac)

Тип рипа : tracks+.cue

Продолжительность : 00:51:00

Источник : собственный рип

Наличие сканов в содержимом раздачи : да

Треклист :
01. P!nk - Hustle (2:56)
02. P!nk - (Hey Why) Miss You Sometime (3:23)
03. P!nk - Walk Me Home (2:59)
04. P!nk - My Attic (3:02)
05. P!nk feat. Stephen Wrabel - 90 Days (3:51)
06. P!nk feat. Khalid - Hurts 2B Human (3:23)
07. P!nk feat. Cash Cash - Can We Pretend (3:44)
08. P!nk - Courage (4:19)
09. P!nk - Happy (3:02)
10. P!nk - We Could Have It All (4:33)
11. P!nk feat. Chris Stapleton - Love Me Anyway (3:08)
12. P!nk - Circle Game (4:54)
13. P!nk - The Last Song Of Your Life (3:54)
14. P!nk - More (3:51)

Лог создания рипа

`Exact Audio Copy V1.3 from 2. September 2016

EAC extraction logfile from 6. May 2019, 19:47

P!nk / Hurts 2B Human

Used drive : ASUS BW-16D1HT Adapter: 1 ID: 0

Read mode : Secure
Utilize accurate stream : Yes
Defeat audio cache : Yes
Make use of C2 pointers : No

Read offset correction : 6
Overread into Lead-In and Lead-Out : No
Fill up missing offset samples with silence : Yes
Delete leading and trailing silent blocks : No
Null samples used in CRC calculations : Yes
Used interface : Native Win32 interface for Win NT & 2000
Gap handling : Appended to previous track

Used output format : User Defined Encoder
Selected bitrate : 896 kBit/s
Quality : High
Add ID3 tag : No
Command line compressor : C:Program Files (x86)Exact Audio CopyFlacflac.exe
Additional command line options : -V -8 -T "Genre=%genre%" -T "Artist=%artist%" -T "Title=%src%" -T "Album=%albumsrc%" -T "Totaldiscs=%totalcds%" -T "Discnumber=%cdnumber%" -T "Date=%year%" -T "Tracknumber=%tracknr%" -T "Comment=%comment%" -T "Composer=%composer%" %source%

TOC of the extracted CD

Track | Start | Length | Start sector | End sector


1 | 0:00.00 | 2:55.51 | 0 | 13175
2 | 2:55.51 | 3:23.11 | 13176 | 28411
3 | 6:18.62 | 2:59.14 | 28412 | 41850
4 | 9:18.01 | 3:02.28 | 41851 | 55528
5 | 12:20.29 | 3:50.61 | 55529 | 72839
6 | 16:11.15 | 3:22.46 | 72840 | 88035
7 | 19:33.61 | 3:44.32 | 88036 | 104867
8 | 23:18.18 | 4:19.30 | 104868 | 124322
9 | 27:37.48 | 3:01.52 | 124323 | 137949
10 | 30:39.25 | 4:33.35 | 137950 | 158459
11 | 35:12.60 | 3:08.14 | 158460 | 172573
12 | 38:20.74 | 4:54.18 | 172574 | 194641
13 | 43:15.17 | 3:53.51 | 194642 | 212167
14 | 47:08.68 | 3:50.55 | 212168 | 229472

Track 1

Filename D:CDrip01. Hustle.wav

Pre-gap length 0:00:02.00

Peak level 100.0 %
Extraction speed 4.2 X
Track quality 100.0 %
Test CRC 4B1FE676
Copy CRC 4B1FE676
Track not present in AccurateRip database
Copy OK

Track 2

Filename D:CDrip02. (Hey Why) Miss You Sometime.wav

Peak level 100.0 %
Extraction speed 4.1 X
Track quality 99.9 %
Test CRC 65205D8F
Copy CRC 65205D8F
Track not present in AccurateRip database
Copy OK

Track 3

Filename D:CDrip03. Walk Me Home.wav

Peak level 100.0 %
Extraction speed 4.9 X
Track quality 100.0 %
Test CRC C3CB894F
Copy CRC C3CB894F
Track not present in AccurateRip database
Copy OK

Track 4

Filename D:CDrip04. My Attic.wav

Peak level 100.0 %
Extraction speed 5.2 X
Track quality 100.0 %
Test CRC 901F9EC8
Copy CRC 901F9EC8
Track not present in AccurateRip database
Copy OK

Track 5

Filename D:CDrip05. 90 Days.wav

Peak level 100.0 %
Extraction speed 5.8 X
Track quality 100.0 %
Test CRC 5A544256
Copy CRC 5A544256
Track not present in AccurateRip database
Copy OK

Track 6

Filename D:CDrip06. Hurts 2B Human.wav

Peak level 100.0 %
Extraction speed 6.0 X
Track quality 100.0 %
Test CRC 486640C1
Copy CRC 486640C1
Track not present in AccurateRip database
Copy OK

Track 7

Filename D:CDrip07. Can We Pretend.wav

Peak level 98.8 %
Extraction speed 5.6 X
Track quality 99.9 %
Test CRC 6EAEBB1B
Copy CRC 6EAEBB1B
Track not present in AccurateRip database
Copy OK

Track 8

Filename D:CDrip08. Courage.wav

Peak level 100.0 %
Extraction speed 6.8 X
Track quality 100.0 %
Test CRC 71A2D810
Copy CRC 71A2D810
Track not present in AccurateRip database
Copy OK

Track 9

Filename D:CDrip09. Happy.wav

Peak level 100.0 %
Extraction speed 6.7 X
Track quality 100.0 %
Test CRC 662B39AE
Copy CRC 662B39AE
Track not present in AccurateRip database
Copy OK

Track 10

Filename D:CDrip10. We Could Have It All.wav

Peak level 100.0 %
Extraction speed 7.4 X
Track quality 100.0 %
Test CRC 27DF2FC7
Copy CRC 27DF2FC7
Track not present in AccurateRip database
Copy OK

Track 11

Filename D:CDrip11. Love Me Anyway.wav

Peak level 100.0 %
Extraction speed 7.4 X
Track quality 100.0 %
Test CRC 2E23574B
Copy CRC 2E23574B
Track not present in AccurateRip database
Copy OK

Track 12

Filename D:CDrip12. Circle Game.wav

Peak level 93.8 %
Extraction speed 8.1 X
Track quality 100.0 %
Test CRC E5A7B703
Copy CRC E5A7B703
Track not present in AccurateRip database
Copy OK

Track 13

Filename D:CDrip13. The Last Song Of Your Life.wav

Peak level 100.0 %
Extraction speed 7.2 X
Track quality 99.9 %
Test CRC B80302F1
Copy CRC B80302F1
Track not present in AccurateRip database
Copy OK

Track 14

Filename D:CDrip14. More.wav

Peak level 100.0 %
Extraction speed 7.3 X
Track quality 99.9 %
Test CRC B12E752D
Copy CRC B12E752D
Track not present in AccurateRip database
Copy OK

None of the tracks are present in the AccurateRip database

No errors occurred

End of status report

---- CUETools DB Plugin V2.1.6

[CTDB TOCID: SON.K6r3iniRdqVFDhR8CHZpE-] found
Submit result: SON.K6r3iniRdqVFDhR8CHZpE- has been confirmed
Track | CTDB Status
1 | (5/5) Accurately ripped
2 | (5/5) Accurately ripped
3 | (5/5) Accurately ripped
4 | (5/5) Accurately ripped
5 | (5/5) Accurately ripped
6 | (5/5) Accurately ripped
7 | (5/5) Accurately ripped
8 | (5/5) Accurately ripped
9 | (5/5) Accurately ripped
10 | (5/5) Accurately ripped
11 | (5/5) Accurately ripped
12 | (5/5) Accurately ripped
13 | (5/5) Accurately ripped
14 | (5/5) Accurately ripped

==== Log checksum 86625A1A962FF3F0C0BE48E51C2930AB4F9603C0E0765D8639997272B2A2CFC3 ==== `

Содержание индексной карты (.CUE)

REM GENRE Pop REM DATE 2019 REM DISCID B00BF30E REM COMMENT "ExactAudioCopy v1.3" PERFORMER "P!nk" TITLE "Hurts 2B Human" REM COMPOSER "" FILE "01. Hustle.wav" WAVE TRACK 01 AUDIO TITLE "Hustle" PERFORMER "P!nk" REM COMPOSER "" ISRC USRC11900546 INDEX 01 00:00:00 FILE "02. (Hey Why) Miss You Sometime.wav" WAVE TRACK 02 AUDIO TITLE "(Hey Why) Miss You Sometime" PERFORMER "P!nk" REM COMPOSER "" ISRC USRC11900546 INDEX 01 00:00:00 FILE "03. Walk Me Home.wav" WAVE TRACK 03 AUDIO TITLE "Walk Me Home" PERFORMER "P!nk" REM COMPOSER "" ISRC USRC11900551 INDEX 01 00:00:00 FILE "04. My Attic.wav" WAVE TRACK 04 AUDIO TITLE "My Attic" PERFORMER "P!nk" REM COMPOSER "" ISRC USRC11900553 INDEX 01 00:00:00 FILE "05. 90 Days.wav" WAVE TRACK 05 AUDIO TITLE "90 Days" PERFORMER "P!nk feat. Stephen Wrabel" REM COMPOSER "" ISRC USRC11900554 INDEX 01 00:00:00 FILE "06. Hurts 2B Human.wav" WAVE TRACK 06 AUDIO TITLE "Hurts 2B Human" PERFORMER "P!nk feat. Khalid" REM COMPOSER "" ISRC USRC11900556 INDEX 01 00:00:00 FILE "07. Can We Pretend.wav" WAVE TRACK 07 AUDIO TITLE "Can We Pretend" PERFORMER "P!nk feat. Cash Cash" REM COMPOSER "" ISRC USRC11900556 INDEX 01 00:00:00 FILE "08. Courage.wav" WAVE TRACK 08 AUDIO TITLE "Courage" PERFORMER "P!nk" REM COMPOSER "" ISRC USRC11900557 INDEX 01 00:00:00 FILE "09. Happy.wav" WAVE TRACK 09 AUDIO TITLE "Happy" PERFORMER "P!nk" REM COMPOSER "" ISRC USRC11900558 INDEX 01 00:00:00 FILE "10. We Could Have It All.wav" WAVE TRACK 10 AUDIO TITLE "We Could Have It All" PERFORMER "P!nk" REM COMPOSER "" ISRC USRC11900560 INDEX 01 00:00:00 FILE "11. Love Me Anyway.wav" WAVE TRACK 11 AUDIO TITLE "Love Me Anyway" PERFORMER "P!nk feat. Chris Stapleton" REM COMPOSER "" ISRC USRC11900560 INDEX 01 00:00:00 FILE "12. Circle Game.wav" WAVE TRACK 12 AUDIO TITLE "Circle Game" PERFORMER "P!nk" REM COMPOSER "" ISRC USRC11900561 INDEX 01 00:00:00 FILE "13. The Last Song Of Your Life.wav" WAVE TRACK 13 AUDIO TITLE "The Last Song Of Your Life" PERFORMER "P!nk" REM COMPOSER "" ISRC USRC11900563 INDEX 01 00:00:00 FILE "14. More.wav" WAVE TRACK 14 AUDIO TITLE "More" PERFORMER "P!nk" REM COMPOSER "" ISRC USRC11900564 INDEX 01 00:00:00

Лог проверки качества

`CUE Corrector v. 8.3.5 / b. 913 (Apr. 22, 2019)
————————————————————————————————————————————————————————————————————————
--- / Hurts 2B Human

Folder: P!nk - Hurts 2B Human (2019) [SICP-6087]
Audio files:
01. Hustle.flac [02:55.680; FLAC • 983 kbps • 16 bit 44100 Hz • stereo; 20.60 MB (21 604 675 B)]
02. (Hey Why) Miss You Sometime.flac [03:23.147; FLAC • 969 kbps • 16 bit 44100 Hz • stereo; 23.48 MB (24 621 806 B)]
03. Walk Me Home.flac [02:59.187; FLAC • 876 kbps • 16 bit 44100 Hz • stereo; 18.73 MB (19 635 465 B)]
04. My Attic.flac [03:02.373; FLAC • 863 kbps • 16 bit 44100 Hz • stereo; 18.76 MB (19 673 960 B)]
05. 90 Days.flac [03:50.813; FLAC • 863 kbps • 16 bit 44100 Hz • stereo; 23.75 MB (24 908 259 B)]
06. Hurts 2B Human.flac [03:22.613; FLAC • 940 kbps • 16 bit 44100 Hz • stereo; 22.72 MB (23 819 117 B)]
07. Can We Pretend.flac [03:44.427; FLAC • 1030 kbps • 16 bit 44100 Hz • stereo; 27.57 MB (28 909 743 B)]
08. Courage.flac [04:19.400; FLAC • 958 kbps • 16 bit 44100 Hz • stereo; 29.65 MB (31 085 844 B)]
09. Happy.flac [03:01.693; FLAC • 955 kbps • 16 bit 44100 Hz • stereo; 20.69 MB (21 692 940 B)]
10. We Could Have It All.flac [04:33.467; FLAC • 995 kbps • 16 bit 44100 Hz • stereo; 32.46 MB (34 032 572 B)]
11. Love Me Anyway.flac [03:08.187; FLAC • 809 kbps • 16 bit 44100 Hz • stereo; 18.15 MB (19 032 762 B)]
12. Circle Game.flac [04:54.240; FLAC • 796 kbps • 16 bit 44100 Hz • stereo; 27.95 MB (29 305 292 B)]
13. The Last Song Of Your Life.flac [03:53.680; FLAC • 694 kbps • 16 bit 44100 Hz • stereo; 19.33 MB (20 273 042 B)]
14. More.flac [03:50.733; FLAC • 833 kbps • 16 bit 44100 Hz • stereo; 22.92 MB (24 035 785 B)]

Accuracy: -m8

File 01. Hustle - 100% CDDA [02:55:51]
File 02. (Hey Why) Miss You Sometime - 100% CDDA [03:23:11]
File 03. Walk Me Home - 100% CDDA [02:59:14]
File 04. My Attic - 100% CDDA [03:02:28]
File 05. 90 Days - 100% CDDA [03:50:61]
File 06. Hurts 2B Human - 100% CDDA [03:22:46]
File 07. Can We Pretend - 100% CDDA [03:44:32]
File 08. Courage - 100% CDDA [04:19:30]
File 09. Happy - 100% CDDA [03:01:52]
File 10. We Could Have It All - 100% CDDA [04:33:35]
File 11. Love Me Anyway - 100% CDDA [03:08:14]
File 12. Circle Game - 100% CDDA [04:54:18]
File 13. The Last Song Of Your Life - 95% MPEG [03:53:51]
File 14. More - 100% CDDA [03:50:55]
————— Summary: —————
These tracks looks like CDDA with probability 100%.
————————————————————————————————————————————————————————————————————————

ANALYZER:
auCDtect: CD records authenticity detector, version 0.8.2
Copyright (c) 2004 Oleg Berngardt. All rights reserved.
Copyright (c) 2004 Alexander Djourik. All rights reserved.

Time elapsed: 9.9 s
Log created at May 06, 2019 22:31:59

=== FE56FA456EA5CA8C60F816EED9AE123B924480F7167293A0823E95C64CCB1DF5 === `


More at ibit.to
And ibit.uno
And ibit.ws

Comments

Files

P!nk - Hurts 2B Human (2019) [SICP-6087]00. Hurts 2B Human.cue 2.6 kB
P!nk - Hurts 2B Human (2019) [SICP-6087]00. P!nk - Hurts 2B Human.log 14 kB
P!nk - Hurts 2B Human (2019) [SICP-6087]00. P!nk - Hurts 2B Human.m3u 879 B
P!nk - Hurts 2B Human (2019) [SICP-6087]01. Hustle.flac 22 MB
P!nk - Hurts 2B Human (2019) [SICP-6087]02. (Hey Why) Miss You Sometime.flac 25 MB
P!nk - Hurts 2B Human (2019) [SICP-6087]03. Walk Me Home.flac 20 MB
P!nk - Hurts 2B Human (2019) [SICP-6087]04. My Attic.flac 20 MB
P!nk - Hurts 2B Human (2019) [SICP-6087]05. 90 Days.flac 25 MB
P!nk - Hurts 2B Human (2019) [SICP-6087]06. Hurts 2B Human.flac 24 MB
P!nk - Hurts 2B Human (2019) [SICP-6087]07. Can We Pretend.flac 29 MB
P!nk - Hurts 2B Human (2019) [SICP-6087]08. Courage.flac 31 MB
P!nk - Hurts 2B Human (2019) [SICP-6087]09. Happy.flac 22 MB
P!nk - Hurts 2B Human (2019) [SICP-6087]10. We Could Have It All.flac 34 MB
P!nk - Hurts 2B Human (2019) [SICP-6087]11. Love Me Anyway.flac 19 MB
P!nk - Hurts 2B Human (2019) [SICP-6087]12. Circle Game.flac 29 MB
P!nk - Hurts 2B Human (2019) [SICP-6087]13. The Last Song Of Your Life.flac 20 MB
P!nk - Hurts 2B Human (2019) [SICP-6087]14. More.flac 24 MB
P!nk - Hurts 2B Human (2019) [SICP-6087]ArtWorksBooklet-2.png 25 MB
P!nk - Hurts 2B Human (2019) [SICP-6087]ArtWorksBooklet-3.png 25 MB
P!nk - Hurts 2B Human (2019) [SICP-6087]ArtWorksBooklet-4.png 24 MB
P!nk - Hurts 2B Human (2019) [SICP-6087]ArtWorksBooklet-5.png 25 MB
P!nk - Hurts 2B Human (2019) [SICP-6087]ArtWorksBooklet-6.png 24 MB
P!nk - Hurts 2B Human (2019) [SICP-6087]ArtWorksBooklet-7.png 27 MB
P!nk - Hurts 2B Human (2019) [SICP-6087]ArtWorksBooklet-8.png 29 MB
P!nk - Hurts 2B Human (2019) [SICP-6087]ArtWorksCD.png 15 MB
P!nk - Hurts 2B Human (2019) [SICP-6087]ArtWorksFront-booklet-1.png 28 MB
P!nk - Hurts 2B Human (2019) [SICP-6087]ArtWorksFront-booklet.png 33 MB
P!nk - Hurts 2B Human (2019) [SICP-6087]ArtWorksFront.png 16 MB
P!nk - Hurts 2B Human (2019) [SICP-6087]ArtWorksInlay-booklet.png 30 MB
P!nk - Hurts 2B Human (2019) [SICP-6087]ArtWorksJapan-booklet.png 15 MB
P!nk - Hurts 2B Human (2019) [SICP-6087]ArtWorksJapan.png 11 MB
P!nk - Hurts 2B Human (2019) [SICP-6087]ArtWorksMatrix CD.png 1.6 MB
P!nk - Hurts 2B Human (2019) [SICP-6087]auCDtect.log 3.5 kB
P!nk - Hurts 2B Human (2019) [SICP-6087]folder.jpg 13 MB

Stream

Downloading Seeding P!nk - Hurts 2B Human (2019) [SICP-6087] from to 0 peers.
of
0 b/s / ↗0 b/s