• 4
  • 1
Anonymous Downloadondemand_video
  • Overlord.2018.720p.BrRip.x265.HEVCBay.com.mkv
  • 453 MB
  • g3m696
  • Overlord 2018 720p BrRip x265 HEVCBay com mkv
  • English
  • HEVC/x265
Warning! Use a VPN When Downloading Torrents!
Your IP Address is ,
Your Internet Provider can see when you download torrents! Hide your IP ADDRESS with a VPN
We strongly recommend hide.me VPN to hide your torrenting. It's FREE!
DOWNLOAD VPN
66%

Overlord (2018)

  • Horror War Action Science Fiction
  • France, June 1944. On the eve of D-Day, some American paratroopers fall behind enemy lines after their aircraft crashes while on a mission to destroy a radio tower in a small village near the beaches of Normandy. After reaching their target, the surviving paratroopers realise that, in addition to fighting the Nazi troops that patrol the village, they also must fight against something else.

    expand_more
    English
  • $38,000,000
  • Description

    [url=hevcbay.com]hevcbay.com[/url]

    [code]General

    Unique ID                                : 260376013120788851840905716218331728838 (0xC3E2989688694B23EE5C262FF6F90BC6)

    Complete name                            : Overlord.2018.720p.BrRip.x265.HEVCBay.com.mkv

    Format                                   : Matroska

    Format version                           : Version 4

    File size                                : 453 MiB

    Duration                                 : 1 h 49 min

    Overall bit rate                         : 577 kb/s

    Movie name                               : Overlord.2018.720p.BrRip.x265.HEVCBay.com.mkv

    Encoded date                             : UTC 2019-02-09 01:07:48

    Writing application                      : hevcbay

    Writing library                          : hevcbay.com / Lavf58.22.100

    Comment                                  : Encoded by hevcbay.com

    ENCODED-BY                               : hevcbay.com

    Video

    ID                                       : 1

    Format                                   : HEVC

    Format/Info                              : High Efficiency Video Coding

    Format profile                           : [email protected]@Main

    Codec ID                                 : V_MPEGH/ISO/HEVC

    Duration                                 : 1 h 49 min

    Bit rate                                 : 521 kb/s

    Width                                    : 1 280 pixels

    Height                                   : 534 pixels

    Display aspect ratio                     : 2.40:1

    Original display aspect ratio            : 2.40:1

    Frame rate mode                          : Constant

    Frame rate                               : 23.976 (24000/1001) FPS

    Color space                              : YUV

    Chroma subsampling                       : 4:2:0

    Bit depth                                : 8 bits

    Bits/(Pixel*Frame)                       : 0.032

    Stream size                              : 409 MiB (90%)

    Writing library                          : Lavc58.40.100 libx265

    Language                                 : English

    Default                                  : Yes

    Forced                                   : No

    Color range                              : Limited

    Audio

    ID                                       : 2

    Format                                   : AAC LC SBR PS

    Format/Info                              : Advanced Audio Codec Low Complexity with Spectral Band Replication and Parametric Stereo

    Commercial name                          : HE-AACv2

    Format settings                          : NBC

    Codec ID                                 : A_AAC-29

    Duration                                 : 1 h 49 min

    Bit rate                                 : 54.0 kb/s

    Channel(s)                               : 2 channels

    Channel layout                           : C

    Sampling rate                            : 48.0 kHz

    Frame rate                               : 23.438 FPS (2048 SPF)

    Compression mode                         : Lossy

    Delay relative to video                  : -148 ms

    Stream size                              : 42.4 MiB (9%)

    Writing library                          : Lavc58.40.100 libfdk_aac

    Language                                 : English

    Default                                  : Yes

    Forced                                   : No

    Text

    ID                                       : 3

    Format                                   : UTF-8

    Codec ID                                 : S_TEXT/UTF8

    Codec ID/Info                            : UTF-8 Plain Text

    Duration                                 : 1 h 4 min

    Bit rate                                 : 4 b/s

    Count of elements                        : 91

    Stream size                              : 1.99 KiB (0%)

    Title                                    : English Forced

    Language                                 : English

    Default                                  : No

    Forced                                   : Yes

    [/code]

    image

    image

    image

    image


    More at ibit.to
    And ibit.uno
    And ibit.ws

    Reviews

    Really, **really** happy with how this one wound up. _Overlord_ is probably this year's movie I most want to rewatch, was definitely one worth seeing on the big screen. I hope it inspires likeminded cinema in the near-future. _Final rating:★★★½ - I really liked it. Would strongly recommend you give it your time._

    Comments

    Files

    Overlord.2018.720p.BrRip.x265.HEVCBay.com.mkv 453 MB

    Stream

    Downloading Seeding Overlord.2018.720p.BrRip.x265.HEVCBay.com.mkv from to 0 peers.
    of
    0 b/s / ↗0 b/s