• 3
  • 1
Sponsored Downloadondemand_video
  • Our Nature (2018) 2160p SDR x265 10bit Phun Psyz.mkv
  • 3.3 GB
  • phunpsyz
  • Nature 2018 2160p SDR x265 10bit Phun Psyz mkv
  • English
  • UltraHD/4K
0%

Our Nature (2018)

  • Documentary
  • This unique Documentary was produced in 2 years in the most beautiful places on earth.

    English

    Description

    www.imdb.com/title/??????

    ?????????

    Source: FGT 4K SDR Remux

    image

    image

    image

    image

    image

    Format                      : Matroska

    Format version              : Version 4

    File size                   : 3.25 GiB

    Duration                    : 48 min 55 s

    Overall bit rate            : 9 511 kb/s

    Writing application         : HandBrake 1.2.0 2018121700

    Video

    ID                          : 1

    Format                      : HEVC

    Format/Info                 : High Efficiency Video Coding

    Format profile              : Main [email protected]@High

    Codec ID                    : V_MPEGH/ISO/HEVC

    Duration                    : 48 min 55 s

    Bit rate                    : 9 002 kb/s

    Width                       : 3 840 pixels

    Height                      : 2 160 pixels

    Display aspect ratio        : 16:9

    Frame rate mode             : Constant

    Frame rate                  : 23.976 (24000/1001) FPS

    Color space                 : YUV

    Chroma subsampling          : 4:2:0

    Bit depth                   : 10 bits

    Bits/(Pixel*Frame)          : 0.045

    Stream size                 : 3.08 GiB (95%)

    Writing library             : x265 2.9:[Windows][GCC 7.1.0][64 bit] 10bit

    Color primaries             : BT.709

    Transfer characteristics    : BT.709

    Matrix coefficients         : BT.709

    Audio

    ID                          : 2

    Format                      : AC-3

    Format/Info                 : Audio Coding 3

    Commercial name             : Dolby Digital

    Codec ID                    : A_AC3

    Duration                    : 48 min 55 s

    Bit rate mode               : Constant

    Bit rate                    : 320 kb/s

    Channel(s)                  : 2 channels

    Channel layout              : L R

    Sampling rate               : 48.0 kHz

    Frame rate                  : 31.250 FPS (1536 SPF)

    Bit depth                   : 16 bits

    Compression mode            : Lossy

    Stream size                 : 112 MiB (3%)

    Title                       : Stereo

    Language                    : English


    More at ibit.to
    And ibit.uno
    And ibit.ws

    Reviews

    Comments

    Files

    Our Nature (2018) 2160p SDR x265 10bit Phun Psyz.mkv 3.3 GB

    Stream

    Downloading Seeding Our Nature (2018) 2160p SDR x265 10bit Phun Psyz.mkv from to 0 peers.
    of
    0 b/s / ↗0 b/s