• 1
  • 2
Sponsored Downloadondemand_video
  • Our.Nature.2018.2160p.2160p.UHD.SDR.BluRay.(x265 10bit DD5.1).[WMAN-LorD].mkv
  • 8.7 GB
  • UHDLorD
  • Nature 2018 2160p UHD SDR BluRay x265 10bit DD5 WMAN LorD mkv
  • English
  • UltraHD/4K
0%

Our Nature (2018)

  • Documentary
  • This unique Documentary was produced in 2 years in the most beautiful places on earth.

    English

    Description

    **_/! If you do not have a hdr monitor. Do this to reproduce right colors. 

       Download madVR (www.madvr.com/).

       Config: Unzip madVR -> copy madVR folder to C:Program Files -> Run as administrator install.bat -> OK.

       Download Media Player Classic - BE (https://sourceforge.net/projects/mpcbe/).

       Config: MPC-BE -> View -> Options -> Video -> Video Renderer -> Select madVR -> OK.

    /! Original 4K releases with much noise, most are old movies. With much noise more bitrate is needed to maintain the quality and final file size are bigger. Releases with 60fps are bigger too._**

     

    ** Release info: **

    **>Encoded by: [WMAN-LorD]

    HDR working!

    Subtitles.

    Chapters.

    Cover.

    SSIM:  

    PSNR: 

    Source: Blu-ray Original 4k HDR
    **

    image

    image 

    image 

    image 

    image

    `

    General

    Unique ID                   : 249991865813249376028946524218643935107 (0xBC12AE990365EAB7515F8C5EFA836F83)

    Complete name               : Our.Nature.2018.2160p.2160p.UHD.SDR.BluRay.(x265 10bit DD5.1).[WMAN-LorD].mkv

    Format                      : Matroska

    Format version              : Version 4

    File size                   : 8.72 GiB

    Duration                    : 48 min 56 s

    Overall bit rate            : 25.5 Mb/s

    Encoded date                : UTC 2019-02-07 02:58:06

    Writing application         : mkvmerge v29.0.0 ('Like It Or Not') 64-bit

    Writing library             : libebml v1.3.6 + libmatroska v1.4.9

    Cover                       : Yes

    Attachments                 : cover.jpg

    Video

    ID                          : 1

    Format                      : HEVC

    Format/Info                 : High Efficiency Video Coding

    Format profile              : Main [email protected]@Main

    Codec ID                    : V_MPEGH/ISO/HEVC

    Duration                    : 48 min 55 s

    Bit rate                    : 24.9 Mb/s

    Width                       : 3 840 pixels

    Height                      : 2 160 pixels

    Display aspect ratio        : 16:9

    Frame rate mode             : Constant

    Frame rate                  : 23.976 (24000/1001) FPS

    Color space                 : YUV

    Chroma subsampling          : 4:2:0

    Bit depth                   : 10 bits

    Bits/(Pixel*Frame)          : 0.125

    Stream size                 : 8.50 GiB (97%)

    Title                       : [WMAN-LorD]

    Language                    : English

    Default                     : Yes

    Forced                      : No

    Audio

    ID                          : 2

    Format                      : AC-3

    Format/Info                 : Audio Coding 3

    Commercial name             : Dolby Digital

    Codec ID                    : A_AC3

    Duration                    : 48 min 56 s

    Bit rate mode               : Constant

    Bit rate                    : 640 kb/s

    Channel(s)                  : 2 channels

    Channel layout              : L R

    Sampling rate               : 48.0 kHz

    Frame rate                  : 31.250 FPS (1536 SPF)

    Bit depth                   : 16 bits

    Compression mode            : Lossy

    Stream size                 : 224 MiB (3%)

    Title                       : Compatibility Track / Dolby Digital Audio / 5.1 / 48 kHz / 640 kbps

    Language                    : English

    Service kind                : Complete Main

    Default                     : Yes

    Forced                      : No

    Menu

    00:00:00.000                : en:Chapter 1

    00:02:33.236                : en:Chapter 2

    00:10:11.444                : en:Chapter 3

    00:16:53.262                : en:Chapter 4

    00:25:06.755                : en:Chapter 5

    00:39:07.137                : en:Chapter 6

    00:45:31.979                : en:Chapter 7

    `

    image


    More at ibit.to
    And ibit.uno
    And ibit.ws

    Reviews

    Comments

    Files

    Our.Nature.2018.2160p.2160p.UHD.SDR.BluRay.(x265 10bit DD5.1).[WMAN-LorD].mkv 8.7 GB
    Our.Nature.2018.2160p.2160p.UHD.SDR.BluRay.(x265 10bit DD5.1).[WMANLorD].mkv 8.7 GB

    Stream

    Downloading Seeding Our.Nature.2018.2160p.2160p.UHD.SDR.BluRay.(x265 10bit DD5.1).[WMAN-LorD].mkv from to 0 peers.
    of
    0 b/s / ↗0 b/s