• 3
  • 0
  • 678
  • done
Sponsored Downloadondemand_video
  • Oneday.2016.HDRip.720p.H264.AAC-OEG
  • 1.7 GB
  • noriegaRJ
  • Oneday 2016 HDRip 720p H264
  • Korean
  • HD
68%

One Day (2017)

  • Fantasy Drama
  • A man, who witnessed his wife's suicide, gradually cures his emotional scars through a fateful encounter with a woman in coma...

    expand_more
    Korean

    Description

    Release: Oneday.2016.HDRip.720p.H264.AAC-OEG

    image

    IMDB: http://www.imdb.com/title/tt6214734/

    Plot: Insurance examiner Gang-Soo (Kim Nam-Gil) falls into a deep depression in the wake of the death of his beloved wife. As he returns to work, he takes on the case of Mi-So (Chun Woo-Hee) whom is laying in a coma in the hospital. Gang-Soo meets a woman there who introduce herself as Mi-So, and it turns out that he is the only one capable of seeing her. It turns out that Mi-So has been in a terrible car accident and while her body is deep in a coma, her spirit is roaming free. And Mi-So has something that she needs Gang-Soo to do for her.

    **Complete name : Oneday.2016.HDRip.720p.H264.AAC-OEG.mp4

    Format : MPEG-4

    Format profile : Base Media

    Codec ID : isom

    File size : 1.66 GiB

    Duration : 1h 53mn

    Overall bit rate : 2 096 Kbps

    Writing application : ShanaEncoder

    Video

    ID : 1

    Format : AVC

    Format/Info : Advanced Video Codec

    Format profile : [email protected]
    Format settings, CABAC : No

    Format settings, ReFrames : 1 frame

    Codec ID : avc1

    Codec ID/Info : Advanced Video Coding

    Duration : 1h 53mn

    Bit rate : 1 961 Kbps

    Width : 1 280 pixels

    Height : 540 pixels

    Display aspect ratio : 2.40:1

    Frame rate mode : Variable

    Frame rate : 29.970 fps

    Minimum frame rate : 14.985 fps

    Maximum frame rate : 29.970 fps

    Color space : YUV

    Chroma subsampling : 4:2:0

    Bit depth : 8 bits

    Scan type : Progressive

    Bits/(Pixel*Frame) : 0.095

    Stream size : 1.56 GiB (94%)

    Writing library : x264 core 148 r2744 b97ae06

    Audio

    ID : 2

    Format : AAC

    Format/Info : Advanced Audio Codec

    Format profile : LC

    Codec ID : 40

    Duration : 1h 53mn

    Bit rate mode : Constant

    Bit rate : 128 Kbps

    Channel count : 2 channels

    Channel positions : Front: L R

    Sampling rate : 44.1 KHz

    Compression mode : Lossy

    Stream size : 104 MiB (6%)**

    SCREENSHOTS:

    image
    image
    image
    image
    image
    image
    image
    image


    More at ibit.to
    And ibit.uno
    And ibit.ws

    Reviews

    **Once he'd failed, can he be second time keep an eye on it.** An intended emotional drama. You could see it from the very first scene itself. But the story had no innovation, just the characters and all the events surrounding them differently written. This is not a bad film, though not everybody would say they enjoyed it, so am I. I have seen many similar films with better appealing melodrama than this. I love tearjerker film, simply this was not my cup of tea. That is where I lost, despite prepared to have a great time watching it. Apart from that, it was very slow and get even slower when tale progresses. Nearly two hours long and overall drags a bit with plain events. Luckily, there were a few course changing scenes that kept the film alive for me. Too matured storytelling with less background score and more sorrowful atmosphere. That means, it's a grownup's film with realistic narration, but build on a fictional concept and a fantasy theme. One thing you must understand that it is not a romance film. The story of an insurance agent who recently widowed. He's assigned to review a patient who met with an accident, is now in coma. Like he's the chosen one, her spirit is visible only for his eyes. After the initial differences, they develop a certain bond as they meet every day. But after some time, the things complicate once the time comes to move on in the world. So what happens to them and other things are told in the remaining. The actors were decent. I am only familiar with the actress and she was good. The actors looked okay. Almost 90 per cent of the story between their roles. Those extra characters really brightened the narration occasionally. Sometimes meaningful and inspiring. Like I said, this is a good film for families, but not for everybody. One of the major reasons was the conclusion. It was kind of expected, but also immoral act. Otherwise, I guess, I would have liked it better. _6/10_

    Comments

    Files

    Oneday.2016.HDRip.720p.H264.AAC-OEG.mp4 1.7 GB

    Stream

    Downloading Seeding Oneday.2016.HDRip.720p.H264.AAC-OEG from to 0 peers.
    of
    0 b/s / ↗0 b/s