• 1
  • 0
  • 29
Sponsored Downloadondemand_video
74%

One Day Since Yesterday: Peter Bogdanovich & the Lost American Film (2014)

  • Documentary
  • The grim woes that surrounded famed director Peter Bogdanovich and his film, "They All Laughed."

    Description

    One.Day.Since.Yesterday.Peter.Bogdanovich.And.The.Lost.American.Film.2014.DVDRip.x264-RedBladePRiME]

    ImDb: http://www.imdb.com/title/tt3920572

    image

    Complete name : One.Day.Since.Yesterday.Peter.Bogdanovich.And.The.Lost.American.Film.2014.DVDRip.x264-RedBlade[PRiME].mkv
    Format : Matroska
    Format version : Version 2
    File size : 560 MiB
    Duration : 1 h 37 min
    Overall bit rate : 801 kb/s
    Encoded date : UTC 2016-12-11 22:41:08
    Writing application : mkvmerge v9.5.0 ('Quiet Fire') 32bit
    Writing library : libebml v1.3.4 + libmatroska v1.4.5

    Video
    ID : 1
    Format : AVC
    Format/Info : Advanced Video Codec
    Format profile : [[email protected]
    Format settings, CABAC : Yes
    Format settings, ReFrames : 5 frames
    Codec ID : VMPEG4/ISO/AVC
    Duration : 1 h 37 min
    Bit rate : 696 kb/s
    Width : 720 pixels
    Height : 402 pixels
    Display aspect ratio : 16:9
    Frame rate mode : Constant
    Frame rate : 23.976 (24000/1001) FPS
    Color space : YUV
    Chroma subsampling : 4:2:0
    Bit depth : 8 bits
    Scan type : Progressive
    Bits/(Pixel*Frame) : 0.100
    Stream size : 486 MiB (87%)
    Writing library : x264 core 148 r2705 3f5ed56
    Encoding settings : cabac=1 / ref=5 / deblock=1:0:0 / analyse=0x3:0x113 / me=umh / subme=8 / psy=1 / psy
    rd=1.00:0.00 / mixedref=1 / merange=16 / chromame=1 / trellis=1 / 8x8dct=1 / cqm=0 / deadzone=21,11 / fastpskip=1 / chromaqpoffset=-2 / threads=12 / lookaheadthreads=2 / slicedthreads=0 / nr=0 / decimate=1 / interlaced=0 / bluraycompat=0 / constrainedintra=0 / bframes=3 / bpyramid=2 / badapt=2 / bbias=0 / direct=3 / weightb=1 / opengop=0 / weightp=2 / keyint=240 / keyintmin=23 / scenecut=40 / intrarefresh=0 / rclookahead=50 / rc=crf / mbtree=1 / crf=19.0 / qcomp=0.60 / qpmin=10 / qpmax=51 / qpstep=4 / vbvmaxrate=17500 / vbvbufsize=17500 / crfmax=0.0 / nalhrd=none / filler=0 / ipratio=1.40 / aq=1:1.00
    Language : English
    Default : Yes
    Forced : No

    Audio
    ID : 2
    Format : AAC
    Format/Info : Advanced Audio Codec
    Format profile : LC
    Codec ID : A_AAC
    Duration : 1 h 37 min
    Bit rate : 103 kb/s
    Channel(s) : 2 channels
    Channel positions : Front: L R
    Sampling rate : 48.0 kHz
    Frame rate : 46.875 FPS (1024 spf)
    Compression mode : Lossy
    Delay relative to video : 9 ms
    Stream size : 71.9 MiB (13%)
    Language : English
    Default : Yes
    Forced : No

    image

    Click Image To View Full Size

    image
    Click To View Screenshot
    Click To View Screenshot
    Click To View Screenshot


    More at ibit.to
    And ibit.uno
    And ibit.ws

    Reviews

    Comments

    Files

    One.Day.Since.Yesterday.Peter.Bogdanovich.And.The.Lost.American.Film.2014.DVDRip.x264-RedBlade[PRiME].mkv 560 MB
    Please Support!! Read More!!!.txt 200 B
    Torrent Downloaded From 1337x.to.txt 100 B
    Torrent Downloaded From ExtraTorrent.cc.txt 400 B
    Torrent downloaded from AhaShare.com.txt 100 B

    Stream

    Downloading Seeding One.Day.Since.Yesterday.Peter.Bogdanovich.And.The.Lost.American.Film.2014.DVDRip.x264-RedBlade[PRiME] from to 0 peers.
    of
    0 b/s / ↗0 b/s