• 0
  • 0
  • done
Anonymous Downloadondemand_video
  • On the waterfront.avi
  • 781 MB
  • solarcoast
  • waterfront avi
  • Зарубежное кино
Warning! Use a VPN When Downloading Torrents!
Your IP Address is ,
Your Internet Provider can see when you download torrents! Hide your IP ADDRESS with a VPN
We strongly recommend Trust.Zone VPN to hide your torrenting. It's FREE!
DOWNLOAD VPN
81%

On the Waterfront (1954)

  • Crime Drama
  • Terry Malloy dreams about being a prize fighter, while tending his pigeons and running errands at the docks for Johnny Friendly, the corrupt boss of the dockers union. Terry witnesses a murder by two of Johnny's thugs, and later meets the dead man's sister and feels responsible for his death. She introduces him to Father Barry, who tries to force him to provide information for the courts that will smash the dock racketeers.

    expand_more
    English
  • $910,000
  • Description

    image

    image

    В порту

    On the waterfront

    • DVDRip на 1,81 Gb - с русскими и английскими субтитрами

    Год выпуска: 1954

    Страна: США

    Жанр: криминал, драма, мелодрама

    Продолжительность: 01:43:17

    Перевод: профессиональный двуголосый закадровый

    Субтитры: нет

    http://www.imdb.com/src/tt0047296/
    8.4/10 (37,290 votes) Top 250:

    112

    Режиссер: Элиа Казан / Elia Kazan /

    Сценарий: Бадд Шульберг /Budd Schulberg/

    (адаптировал публицистические статьи Малколма Джонсона, посвященные коррупции и жестокости, процветающим в доках Нью-Йорка и Нью-Джерси)

    В главных ролях:

    Марлон Брандо / Marlon Brando /, Карл Молден /Karl Malden/, Ева Мари Сэйнт /Eva Marie Saint/, Ли Джей Кобб/Lee J.Cobb/, Род Стайгер /Rod Steiger/, Пэт Хеннинг /Pat Henning/

    Описание:

    В центре сюжета судьба простого докера - Терри Мэллоу (Марлон Брандо), терзающегося сомнениями и решающего встать на путь восстановления справедливости, после того как выясняется, что он работает на настоящего гангстера - коррумпированного босса портовых докеров Джонни Фрэндли (Ли Дж. Кобб).

    Классическая сцена на заднем сиденье такси входит в "золотой фонд" Голливуда и во все методические разработки актерского и режиссерского мастерства.

    • Премия "Оскар" за лучший фильм 1955 г.
      • Фильм "В порту" номинировался в двенадцати категориях и получил премию "Оскар" в восьми номинациях: "Лучший фильм", "Лучший актер", "Лучшая актриса второго плана", "Лучший режиссер", "Лучший сценарист и автор сюжета", "Лучший художник-постановщик / художник по интерьеру (черно-белый фильм)", "Лучшая черно-белая кинематография" и "Лучший редактор монтажа".

    минутный СЭМПЛ - 7,72 Mb

    Качество: DVDRip

    Формат: AVI

    Источник: DVD5

    Видео кодек: XviD

    Аудио кодек: MP3

    Видео: 25 кадр/сек (512x384), битрейт 919 Кбит/сек, 0.187 бит/пиксель

    Аудио: Russian (MP3, 2 ch)

    Audio #1: MP3, 2 ch, 128 Kbps, 48,0 КГц - русский профессиональный двуголосый закадровый

    скриншоты

    image

    image

    image

    image

    image

    MediaInfo

    Код:

    Format                           : AVI
    Format/Info                      : Audio Video Interleave
    File size                        : 781 MiB
    Duration                         : 1h 43mn
    Overall bit rate                 : 1 057 Kbps

    Video
    ID                               : 0
    Format                           : MPEG-4 Visual
    Format profile                   : [email protected]
    Format settings, BVOP            : Yes
    Format settings, QPel            : No
    Format settings, GMC             : No warppoints
    Format settings, Matrix          : Default (MPEG)
    Muxing mode                      : Packed bitstream
    Codec ID                         : XVID
    Codec ID/Hint                    : XviD
    Duration                         : 1h 43mn
    Bit rate                         : 919 Kbps
    Width                            : 512 pixels
    Height                           : 384 pixels
    Display aspect ratio             : 4:3
    Frame rate                       : 25.000 fps
    Resolution                       : 24 bits
    Colorimetry                      : 4:2:0
    Scan type                        : Progressive
    Bits/(Pixel*Frame)               : 0.187
    Stream size                      : 679 MiB (87%)
    Writing library                  : XviD 1.2.0.dev47 (UTC 2006-11-01)

    Audio
    ID                               : 1
    Format                           : MPEG Audio
    Format version                   : Version 1
    Format profile                   : Layer 3
    Codec ID                         : 55
    Codec ID/Hint                    : MP3
    Duration                         : 1h 43mn
    Bit rate mode                    : Constant
    Bit rate                         : 128 Kbps
    Channel(s)                       : 2 channels
    Sampling rate                    : 48.0 KHz
    Resolution                       : 16 bits
    Stream size                      : 94.6 MiB (12%)
    Alignment                        : Aligned on interleaves
    Interleave, duration             : 40 ms (1.00 video frame)
    Interleave, preload duration     : 504 ms
    Writing library                  : LAME3.97
    Encoding settings                : -m j -V 4 -q 2 -lowpass 17 -b 128

    • на трекере есть HDTVRip .. была мысль сделать рип с него, но там картинка (соотношение сторон) кропнутая с данного формата (4:3) и довольно много шума.

    More at ibit.to
    And ibit.uno
    And ibit.ws

    Reviews

    Comments

    10 years ago

    solarcoast Цитата: Субтитры: Контейнер AVI/OpenDML может содержать несколько дорожек с субтитрами в формате SRT, но желательно все субтитры выкладывать в релизе отдельными файлами, названия которых начинаются так же, как назван основной видеофайл. Почему субтитры в VobSub? ========== AVO - не правильно, нужно MVO. Исправьте. О переводах

    10 years ago
    • здесь нет субтитров * AVO на MVO исправил
    10 years ago

    solarcoast писал(а): здесь нет субтитров Ссылку на сабы тогда уберите, плз.

    8 years ago

    фильм очень хороший, вся соль фильма в диалогах, и конечно же, социальность фильма важна и игра актеров и режиссер - Элия Казан... фильм достойных всяческих похвал и оливкового венка, но марлон брандо как-то не впечатлил, с явно брутальной внешностью, его поведение кажется подростковым... не знаю.. может, пожалею, что так сказала, но сейчас именно так и думаю.

    8 years ago

    karkushkino писал(а): его поведение кажется подростковым... не знаю.. может, пожалею, что так сказала, но сейчас именно так и думаю. вы о финале?

    8 years ago

    Цитата: В начале 1950-х годов Кобб обвинялся Комитетом по расследованию антиамериканской деятельности в симпатиях коммунистам, из-за его либеральных взглядов и причастности к ряду политических и благотворительных организациях, подозреваемых в связях с коммунистами. В течении двух лет он отказывался давать какие-либо показания комитету, прежде чем, под угрозой занесения в чёрный список, не пошёл на уступки. На даче показаний актёр назвал имена двадцати человек, бывших членами Коммунистической партии США. Позже он объяснил свой поступок боязнью остаться без работы и подвергнуть семью финансовым проблемам.Вскоре после слушаний на экраны вышла драма «В порту», где Ли Джей Кобб исполнил роль Джанни Фриндли, принёсшую ему первую номинацию на премию Американской киноакадемии. Сценаристом и режиссёром картины выступили Элиа Казан и Бадд Шульберг, два других «дружественных свидетеля» на заседаниях антикоммунистического комитета. Фильм, получивший восемь «Оскаров», содержал в себе заложенный Казаном политический контекст, и рассматривался в качестве аллегории и апологии с его стороны. оно как...

    8 years ago

    Должно быть фильм-бомба для тех времен. Отлично смотрится и сейчас

    4 years ago

    Ничего особенного в этом фильме не увидел. Очень все средненько. Сюжет слабый. Непонятно, за что куча "Оскаров" и номинаций. Видел гораздо лучшие картины того периода...

    Files

    On the waterfront.avi 781 MB

    Stream

    Downloading Seeding On the waterfront.avi from to 0 peers.
    of
    0 b/s / ↗0 b/s