• 0
  • 0
  • done
Anonymous Downloadondemand_video
  • On the Waterfront. BDRip. Kultura..avi
  • 2.2 GB
  • semvlk1
  • Waterfront BDRip Kultura avi
  • Зарубежное кино
Warning! Use a VPN When Downloading Torrents!
Your IP Address is ,
Your Internet Provider can see when you download torrents! Hide your IP ADDRESS with a VPN
We strongly recommend Trust.Zone VPN to hide your torrenting. It's FREE!
DOWNLOAD VPN
81%

On the Waterfront (1954)

  • Crime Drama
  • Terry Malloy dreams about being a prize fighter, while tending his pigeons and running errands at the docks for Johnny Friendly, the corrupt boss of the dockers union. Terry witnesses a murder by two of Johnny's thugs, and later meets the dead man's sister and feels responsible for his death. She introduces him to Father Barry, who tries to force him to provide information for the courts that will smash the dock racketeers.

    expand_more
    English
  • $910,000
  • Description

    В порту / On the Waterfront

    image

    Страна : США

    Жанр : драма

    Год выпуска : 1954

    Продолжительность : 01:47:54


    Перевод : Профессиональный (двухголосый закадровый) Культура

    Субтитры : нет

    Оригинальная аудиодорожка : английский


    Режиссер : Элиа Казан / Elia Kazan

    В ролях : Марлон Брандо, Карл Молден, Ли Дж. Кобб, Род Стайгер, Пэт Хеннинг, Лейф Эриксон, Джеймс Уэстерфилд

    Описание : В центре сюжета судьба простого докера — Терри Мэллоу, терзающегося сомнениями и решающего встать на путь восстановления справедливости, после того как выясняется, что он работает на настоящего гангстера — коррумпированного босса портовых докеров Джонни Фрэндли.

    image image


    Сэмпл : https://yadi.sk/i/Oy-qVL3JLv9U


    За запись с Культуры спасибо ItarTass .
    За исходник видео спасибо christm .


    Качество видео : BDRip

    Формат видео : AVI

    Видео : Xvid, 688x416 (1.66:1), 2301 kbps, 23,976 fps, 0.335 b/px

    Аудио 1 : Russian AС3, 48.0 KHz, 224 kbps, 2 ch, 16-bit - DVO [Культура].

    Аудио 2 : English AС3, 48.0 KHz, 192 kbps, 2 ch, 16-bit - Original.

    MediaInfo

    E:SemDesktopOn the Waterfront. BDRip. Kultura..avi
    General
    Complete name : E:SemDesktopOn the Waterfront. BDRip. Kultura..avi
    Format : AVI
    Format/Info : Audio Video Interleave
    File size : 2.06 GiB
    Duration : 1h 47mn
    Overall bit rate : 2 731 Kbps
    Writing application : VirtualDubMod 1.5.10.2 (build 2540/release)
    Writing library : VirtualDubMod build 2540/release
    Video #0
    ID : 0
    Format : MPEG-4 Visual
    Format profile : Advanced [email protected]
    Format settings, BVOP : 2
    Format settings, QPel : No
    Format settings, GMC : No warppoints
    Format settings, Matrix : Custom
    Muxing mode : Packed bitstream
    Codec ID : XVID
    Codec ID/Hint : XviD
    Duration : 1h 47mn
    Bit rate : 2 301 Kbps
    Width : 688 pixels
    Height : 416 pixels
    Display aspect ratio : 1.654
    Frame rate : 23.976 fps
    Color space : YUV
    Chroma subsampling : 4:2:0
    Bit depth : 8 bits
    Scan type : Progressive
    Compression mode : Lossy
    Bits/(Pixel*Frame) : 0.335
    Stream size : 1.73 GiB (84%)
    Writing library : XviD 64
    Audio #1
    ID : 1
    Format : AC-3
    Format/Info : Audio Coding 3
    Mode extension : CM (complete main)
    Format settings, Endianness : Big
    Codec ID : 2000
    Duration : 1h 47mn
    Bit rate mode : Constant
    Bit rate : 224 Kbps
    Channel(s) : 2 channels
    Channel positions : Front: L R
    Sampling rate : 48.0 KHz
    Bit depth : 16 bits
    Compression mode : Lossy
    Stream size : 173 MiB (8%)
    Alignment : Split accross interleaves
    Interleave, duration : 42 ms (1.00 video frame)
    Interleave, preload duration : 500 ms
    Audio #2
    ID : 2
    Format : AC-3
    Format/Info : Audio Coding 3
    Mode extension : CM (complete main)
    Format settings, Endianness : Big
    Codec ID : 2000
    Duration : 1h 47mn
    Bit rate mode : Constant
    Bit rate : 192 Kbps
    Channel(s) : 2 channels
    Channel positions : Front: L R
    Sampling rate : 48.0 KHz
    Bit depth : 16 bits
    Compression mode : Lossy
    Stream size : 148 MiB (7%)
    Alignment : Split accross interleaves
    Interleave, duration : 42 ms (1.00 video frame)
    Interleave, preload duration : 500 ms

    Скриншоты

    image image image image image


    More at ibit.to
    And ibit.uno
    And ibit.ws

    Reviews

    Comments

    Files

    On the Waterfront. BDRip. Kultura..avi 2.2 GB

    Stream

    Downloading Seeding On the Waterfront. BDRip. Kultura..avi from to 0 peers.
    of
    0 b/s / ↗0 b/s