• 0
  • 0
Sponsored Downloadondemand_video
50%

Oceans: Our Blue Planet (2018)

  • Documentary
  • Embark on a global odyssey to discover the largest and least explored habitat on earth. New ocean science and technology has allowed us to go further into the unknown than we ever thought possible.

    expand_more
    English

    Description

    **_/! If you do not have a hdr monitor. Do this to reproduce right colors. 

       Download madVR (www.madvr.com/).

       Config: Unzip madVR -> copy madVR folder to C:Program Files -> Run as administrator install.bat -> OK.

       Download Media Player Classic - BE (https://sourceforge.net/projects/mpcbe/).

       Config: MPC-BE -> View -> Options -> Video -> Video Renderer -> Select madVR -> OK.

    /! Original 4K releases with much noise, most are old movies. With much noise more bitrate is needed to maintain the quality and final file size are bigger. Releases with 60fps are bigger too._**

     

    ** Release info: **

    **>Encoded by: [WMAN-LorD]

    HDR working!

    Subtitles.

    Chapters.

    Cover.

    SSIM:  

    PSNR: 

    Source: Blu-ray Original 4k HDR
    **

    image

    image 

    image 

    image 

    image

    `

    General

    Unique ID                   : 275352365515661151688516595454088338531 (0xCF26EFC50C01C3F873453260EFA45C63)

    Complete name               : Oceans.Our.Blue.Planet.2018.2160p.UHD.HDR.BluRay.(x265 10bit DD5.1).[WMAN-LorD]

    Format                      : Matroska

    Format version              : Version 4

    File size                   : 2.31 GiB

    Duration                    : 41 min 52 s

    Overall bit rate            : 7 892 kb/s

    Movie name                  : Oceans: Our Blue Planet (2018)

    Encoded date                : UTC 2019-02-23 11:34:12

    Writing application         : mkvmerge v29.0.0 ('Like It Or Not') 64-bit

    Writing library             : libebml v1.3.6 + libmatroska v1.4.9

    Cover                       : Yes

    Attachments                 : cover.jpg

    IMDB                        : tt8632844

    TMDB                        : movie/533962

    Video

    ID                          : 1

    Format                      : HEVC

    Format/Info                 : High Efficiency Video Coding

    Format profile              : Main [email protected]@Main

    Codec ID                    : V_MPEGH/ISO/HEVC

    Duration                    : 41 min 52 s

    Bit rate                    : 7 238 kb/s

    Width                       : 3 840 pixels

    Height                      : 2 160 pixels

    Display aspect ratio        : 16:9

    Frame rate mode             : Constant

    Frame rate                  : 23.976 (24000/1001) FPS

    Color space                 : YUV

    Chroma subsampling          : 4:2:0

    Bit depth                   : 10 bits

    Bits/(Pixel*Frame)          : 0.036

    Stream size                 : 2.12 GiB (92%)

    Title                       : [WMAN-LorD]

    Language                    : English

    Default                     : Yes

    Forced                      : No

    Color range                 : Limited

    Color primaries             : BT.2020

    Transfer characteristics    : PQ

    Matrix coefficients         : BT.2020 non-constant

    Audio

    ID                          : 2

    Format                      : AC-3

    Format/Info                 : Audio Coding 3

    Commercial name             : Dolby Digital

    Codec ID                    : A_AC3

    Duration                    : 41 min 52 s

    Bit rate mode               : Constant

    Bit rate                    : 640 kb/s

    Channel(s)                  : 6 channels

    Channel layout              : L R C LFE Ls Rs

    Sampling rate               : 48.0 kHz

    Frame rate                  : 31.250 FPS (1536 SPF)

    Bit depth                   : 16 bits

    Compression mode            : Lossy

    Stream size                 : 192 MiB (8%)

    Title                       : Compatibility Track / Dolby Digital Audio / 5.1 / 48 kHz / 640 kbps

    Language                    : English

    Service kind                : Complete Main

    Default                     : Yes

    Forced                      : No

    Text

    ID                          : 3

    Format                      : PGS

    Muxing mode                 : zlib

    Codec ID                    : S_HDMV/PGS

    Codec ID/Info               : Picture based subtitle format used on BDs/HD-DVDs

    Duration                    : 40 min 4 s

    Bit rate                    : 22.8 kb/s

    Count of elements           : 540

    Stream size                 : 6.54 MiB (0%)

    Title                       : SDH

    Language                    : English

    Default                     : No

    Forced                      : No

    Menu

    00:00:00.000                : en:Chapter 1

    00:10:28.127                : en:Chapter 2

    00:20:03.702                : en:Chapter 3

    00:30:58.273                : en:Chapter 4

    00:39:31.202                : en:Chapter 5

    `

    image


    More at ibit.to
    And ibit.uno
    And ibit.ws

    Reviews

    Comments

    Files

    Oceans.Our.Blue.Planet.2018.2160p.UHD.HDR.BluRay.(x265 10bit DD5.1).[WMAN-LorD].mkv 2.3 GB
    Oceans.Our.Blue.Planet.2018.2160p.UHD.HDR.BluRay.(x265 10bit DD5.1).[WMANLorD].mkv 2.3 GB

    Stream

    Downloading Seeding Oceans.Our.Blue.Planet.2018.2160p.UHD.HDR.BluRay.(x265 10bit DD5.1).[WMAN-LorD].mkv from to 0 peers.
    of
    0 b/s / ↗0 b/s