• -
  • -
  • done
ondemand_video
  • Nurses Season 1. revittony
  • 2.5 GB
  • revittony1
  • Nurses Season revittony
  • TV shows
66%

Nurses: Season 1(2020)

  • 1
  • Drama
  • Follow five young nurses working on the frontlines of a busy hospital in downtown Toronto, dedicating their lives to helping others, while struggling to help themselves.

    expand_more
    English

    Description

    https://www.imdb.com/title/tt9024590
    .mkv
    Format : Matroska
    Format version : Version 4
    Overall bit rate : 773 kb/s
    Writing application : mkvmerge v8.8.0 ('Wind at my back') 64bit
    Writing library : libebml v1.3.3 + libmatroska v1.4.4
    Video
    ID : 1
    Format : AVC
    Format/Info : Advanced Video Codec
    Format profile : [email protected]
    Format settings : CABAC / 5 Ref Frames
    Format settings, CABAC : Yes
    Format settings, Reference frames : 5 frames
    Codec ID : VMPEG4/ISO/AVC
    Duration : 41 min 19 s
    Bit rate : 654 kb/s
    Width : 720 pixels
    Height : 404 pixels
    Display aspect ratio : 16:9
    Frame rate mode : Constant
    Frame rate : 23.976 (24000/1001) FPS
    Color space : YUV
    Chroma subsampling : 4:2:0
    Bit depth : 8 bits
    Scan type : Progressive
    Bits/(Pixel*Frame) : 0.094
    Stream size : 193 MiB (85%)
    Writing library : x264 core 159 r2991 1771b55
    Default : Yes
    Forced : No
    Color range : Limited
    Matrix coefficients : BT.709
    Audio
    ID : 2
    Format : AAC LC
    Format/Info : Advanced Audio Codec Low Complexity
    Codec ID : A
    AAC-2
    Duration : 41 min 19 s
    Bit rate : 117 kb/s
    Channel(s) : 2 channels
    Channel layout : L R
    Sampling rate : 48.0 kHz
    Frame rate : 46.875 FPS (1024 SPF)
    Compression mode : Lossy
    Delay relative to video : 20 ms
    Stream size : 34.6 MiB (15%)
    Default : Yes
    Forced : No


    More at ibit.to
    And ibit.uno
    And ibit.am
    And ibit.ws

    Reviews

    Comments

    Files

    Nurses Season 1. revittony -

    Stream

    Downloading Seeding Nurses Season 1. revittony from to 0 peers.
    of
    0 b/s / ↗0 b/s