• 468
  • 201
  • done
Downloadondemand_video

Description

Новогодний ремонт

image

Страна : Россия

Студия : ВитЭл

Жанр : комедия, мелодрама

Год выпуска : 2019

Продолжительность : 01:22:53

Перевод : Не требуется

Субтитры : нет

Оригинальная аудиодорожка : русский

Режиссёр : Артур Пинхасов

В ролях : Зоя Бербер, Сергей Комаров, Артём Осипов, Эрик Бигуля, Вадим Галыгин, Ирина Розанова, Виталия Корниенко, Данил Стеклов, Макар Запорожский, Исмаил Коне

Описание :

У Марго есть 24 часа, чтобы сделать ремонт в квартире к приезду дочери и мамы. В попытке найти решение, она случайно отправляет сообщение с просьбой о помощи всем контактам в телефоне. С этого момента дверной звонок звучит непрерывно, а в квартире Риты один за другим появляются старые и новые друзья — русский депутат, учитель-еврей, армянин — владелец ресторана. Последним как снег на голову падает американец с предложением жениться. Все вместе решают: Маргариту в США отпускать нельзя! Пусть это будет непросто, но русские ведь просто так не сдаются…

Кинопоиск
Sample

Тип релиза : WEBRip 1080p -

ExKinoRay

Контейнер : MKV

Видео : MPEG4 AVC Video, H264, 2.40:1, 1920x800, 25 fps, 5013 kbps

Аудио : Russian (AC3, 2 ch, 192 kbps, 16 bits, 48.0 KHz) - оригинал

MediaInfo

General
Unique ID : 251248225468383034700874168490370957629 (0xBD04A5E9402649889A279B3FCC16813D)
Complete name : D:Novogodniy.remont.2019.WEB-DL.(1080p).ExKinoRay.mkv
Format : Matroska
Format version : Version 2
File size : 3.07 GiB
Duration : 1 h 22 min
Overall bit rate : 5 310 kb/s
Encoded date : UTC 2020-01-11 02:25:08
Writing application : mkvmerge v5.8.0 ('No Sleep / Pillow') built on Sep 2 2012 15:37:04
Writing library : libebml v1.2.3 + libmatroska v1.3.0

Video
ID : 1
Format : AVC
Format/Info : Advanced Video Codec
Format profile : [email protected]
Format settings : CABAC / 4 Ref Frames
Format settings, CABAC : Yes
Format settings, ReFrames : 4 frames
Codec ID : V_MPEG4/ISO/AVC
Duration : 1 h 22 min
Bit rate : 5 013 kb/s
Width : 1 920 pixels
Height : 800 pixels
Display aspect ratio : 2.40:1
Frame rate mode : Constant
Frame rate : 25.000 FPS
Color space : YUV
Chroma subsampling : 4:2:0
Bit depth : 8 bits
Scan type : Progressive
Bits/(Pixel*Frame) : 0.131
Stream size : 2.90 GiB (94%)
Language : Russian
Default : Yes
Forced : No

Audio
ID : 2
Format : AC-3
Format/Info : Audio Coding 3
Codec ID : A_AC3
Duration : 1 h 22 min
Bit rate mode : Constant
Bit rate : 192 kb/s
Channel(s) : 2 channels
Channel positions : Front: L R
Sampling rate : 48.0 kHz
Frame rate : 31.250 FPS (1536 SPF)
Bit depth : 16 bits
Compression mode : Lossy
Stream size : 114 MiB (4%)
Language : Russian
Service kind : Complete Main
Default : Yes
Forced : No

Скриншоты

imageimageimageimage
imageimageimageimage


More at ibit.to
And ibit.uno
And ibit.am
And ibit.ws

Comments

Files

Novogodniy.remont.2019.WEB-DL.(1080p).ExKinoRay.mkv 3.3 GB

Stream

Downloading Seeding Novogodniy.remont.2019.WEB-DL.(1080p).ExKinoRay.mkv from to 0 peers.
of
0 b/s / ↗0 b/s