• 0
  • 0
  • 485
Anonymous Downloadondemand_video
  • Naam Hai Akira (2016) 1080p Blu-Ray x264 AAC 5.1 ESub -DDR
  • 2.6 GB
  • SaM
  • Naam Akira 2016 1080p x264 ESub Hai Blu Ray AAC DDR
  • Chinese
  • HD
Warning! Use a VPN When Downloading Torrents!
Your IP Address is ,
Your Internet Provider can see when you download torrents! Hide your IP ADDRESS with a VPN
We strongly recommend Trust.Zone VPN to hide your torrenting. It's FREE!
DOWNLOAD VPN

Description

image
image

** 7200p Blu-Ray Rip x264 **

** Hindi AAC 5.1 Audio **

** English Subs **

** SCREENSHOTS **
image image image image image image image image image image image image image image image image image image

** SPECS **
**Source: Blu-ray BD50 @ HDT

Format : Matroska

File size : 2.58 GiB

Duration : 2 h 16 min

Overall bit rate : 2 698 kb/s

Video

Format : AVC

Format/Info : Advanced Video Codec

Format profile : [email protected]
Format settings, CABAC : Yes

Format settings, ReFrames : 5 frames

Codec ID : V_MPEG4/ISO/AVC

Duration : 2 h 16 min

Bit rate : 2 500 kb/s

Width : 1 920 pixels

Height : 800 pixels

Display aspect ratio : 2.40:1

Frame rate mode : Constant

Frame rate : 24.000 FPS

Color space : YUV

Chroma subsampling : 4:2:0

Bit depth : 8 bits

Scan type : Progressive

Bits/(Pixel*Frame) : 0.068

Stream size : 2.39 GiB (93%)

Default : Yes

Forced : No

Color range : Limited

Color primaries : BT.709

Transfer characteristics : BT.709

Matrix coefficients : BT.709

Audio #1

Format : AAC

Format/Info : Advanced Audio Codec

Format profile : LC

Codec ID : A_AAC

Duration : 2 h 16 min

Bit rate : 192 kb/s

Channel(s) : 6 channels

Channel positions : Front: L C R, Side: L R, LFE

Sampling rate : 48.0 kHz

Frame rate : 46.875 FPS (1024 spf)

Compression mode : Lossy

Delay relative to video : 9 ms

Stream size : 188 MiB (7%)

Language : Hindi

Default : Yes

Forced : No**

SAMPLE Included

A DDR Exclusive Encode


More at ibit.to
And ibit.uno
And ibit.ws

Comments

Files

Akira (2016) 1080p Blu-Ray x264 AAC 5.1 ESub -DDR/Akira (2016) 1080p Blu-Ray x274 AAC 5.1 ESub -DDR.mkv 2.6 GB
Akira (2016) 1080p Blu-Ray x264 AAC 5.1 ESub -DDR/sample-Akira (2016) 1080p Blu-Ray x274 AAC 5.1 ESub -DDR.mkv 7.1 MB
Akira (2016) 1080p Blu-Ray x264 AAC 5.1 ESub -DDR/A DDR Release !!!.txt 300 B
Akira (2016) 1080p Blu-Ray x264 AAC 5.1 ESub -DDR/Akira (2016) 1080p BluRay x264 AAC 5.1 ESub -DDR -
Akira (2016) 1080p Blu-Ray x264 AAC 5.1 ESub -DDR/Akira (2016) 1080p BluRay x274 AAC 5.1 ESub -DDR.mkv 2.6 GB
Akira (2016) 1080p Blu-Ray x264 AAC 5.1 ESub -DDR/sampleAkira (2016) 1080p Blu-Ray x274 AAC 5.1 ESub -DDR.mkv 7.1 MB

Stream

Downloading Seeding Naam Hai Akira (2016) 1080p Blu-Ray x264 AAC 5.1 ESub -DDR from to 0 peers.
of
0 b/s / ↗0 b/s