• 0
  • 0
  • done
Anonymous Download
  • Na.Parizh.WEB-DL.1080p.m4v
  • 3.6 GB
  • pk5360114
  • Parizh WEB 1080p m4v
  • Видео HD
Warning! Use a VPN When Downloading Torrents!
Your IP Address is ,
Your Internet Provider can see when you download torrents! Hide your IP ADDRESS with a VPN
We strongly recommend Trust.Zone VPN to hide your torrenting. It's FREE!
DOWNLOAD VPN

Description

На Париж

-

image 5.092 / 10 image 2.90 / 10


image

Год выпуска : 2018

Страна : Россия

Жанр : История, приключения

Продолжительность : 01:35:18

Перевод : (Не требуется)

Оригинальная аудиодорожка : Есть

Cубтитры : Нет

Режиссёр : Сергей Саркисов

Сценарий : Станислав Говорухин, Сергей Ашкенази, Сергей Саркисов

Продюсер : Сергей Саркисов, Александр Жижневский, Рустам Юсипов

Оператор : Владимир Климов

Композитор : Артем Васильев

Художник : Антон Поликарпов

Монтаж : Николай Викторов

В ролях : Дмитрий Певцов, Сергей Маковецкий, Рената Литвинова, Евгений Стычкин, Федор Добронравов, Максим Важов, Торнике Квитатиани, Игорь Золотовицкий, Кирилл Зайцев, Александр Рапопорт

Премьера (РФ) : 9 мая 2019, «Пионер»

Цифровой релиз : 10 июня 2019, «НД Плэй»

Описание : История советских офицеров, плечом к плечу прошедших войну и решивших отпраздновать Великую Победу в Париже. Друзья, выдержавшие страшный путь войны, доходят до самого Берлина и берут курс на новую жизнь — на любовь, захватывающие приключения и город мечты Париж.


Качество исходника : WEB-DL 1080p (NNMClub)

Качество : WEB-DL

Тип : HD (1080p)

Контейнер : M4V

Видео : H.264, 1908x792, 2.40:1, 4 531 Kbps, 23.976 fps

Аудио 1 : Русский/Оригинальная дорожка, AAC / 2.0 / 160 Kbps / 48.0 KHz

Аудио 2 : Русский/Оригинальная дорожка, AC-3 / 5.1 / 384 Kbps / 48.0 KHz


iTunes Meta Tags

Код:

Sort Name: На Париж
XID: Apple:vendor_id:2019-1046486
contentID: 1466052222
Screenwriters: Станислав Говорухин, Сергей Ашкенази, Сергей Саркисов
Producers: Сергей Саркисов, Александр Жижневский, Рустам Юсипов
Director: Сергей Саркисов
Cast: Дмитрий Певцов, Сергей Маковецкий, Рената Литвинова, Евгений Стычкин, Федор Добронравов, Максим Важов, Торнике Квитатиани, Игорь Золотовицкий, Кирилл Зайцев, Александр Рапопорт
Studio: Блиц Фильм
Rating: 136
Long Description: История советских офицеров, плечом к плечу прошедших войну и решивших отпраздновать Великую Победу в Париже. Друзья, выдержавшие страшный путь войны, доходят до самого Берлина и берут курс на новую жизнь - на любовь, захватывающие приключения и город мечты Париж.
Description: История советских офицеров, плечом к плечу прошедших войну и решивших отпраздновать Великую Победу в Париже. Друзья, выдержавшие страшный путь войны, доходят до самого Берлина и берут курс на новую жизнь - на любовь, захватывающие приключения и город мечты Париж.
Release Date: 2019-05-24T07:00:00Z
Genre: Комедии
Artist: Сергей Саркисов
Name: На Париж

MediaInfo

Код:

General
Complete name                            : /Users/imac/HandBrake/Na.Parizh.WEB-DL.1080p.m4v
Format                                   : MPEG-4
Codec ID                                 : M4V  (M4V /M4A /mp42/isom)
File size                                : 3.38 GiB
Duration                                 : 1h 35mn
Overall bit rate mode                    : Variable
Overall bit rate                         : 5 077 Kbps
Movie name                               : На Париж
Performer                                : Сергей Саркисов
Director                                 : Сергей Саркисов
Actor                                    : Дмитрий Певцов / Сергей Маковецкий / Рената Литвинова / Евгений Стычкин / Федор Добронравов / Максим Важов / Торнике Квитатиани / Игорь Золотовицкий / Кирилл Зайцев / Александр Рапопорт
Screenplay by                            : Станислав Говорухин / Сергей Ашкенази / Сергей Саркисов
Producer                                 : Сергей Саркисов / Александр Жижневский / Рустам Юсипов
Production studio                        : Блиц Фильм
Genre                                    : Комедии
ContentType                              : Short Film
Description                              : История советских офицеров, плечом к плечу прошедших войну и решивших отпраздновать Великую Победу в Париже. Друзья, выдержавшие страшный путь войны, доходят до самого Берлина и берут курс на новую жизнь - на любовь, захватывающие приключения и город мечты Париж.
Recorded date                            : UTC 2019-05-24 07:00:00
Encoded date                             : UTC 2019-06-10 22:44:08
Tagged date                              : UTC 2019-06-10 22:44:54
Cover                                    : Yes
Rating                                   : None
Title/Sort                               : На Париж
LongDescription                          : История советских офицеров, плечом к плечу прошедших войну и решивших отпраздновать Великую Победу в Париже. Друзья, выдержавшие страшный путь войны, доходят до самого Берлина и берут курс на новую жизнь - на любовь, захватывающие приключения и город мечты Париж.
AppleStoreCatalogID                      : 1466052222
Vendor                                   : Apple:vendor_id:2019-1046486
ContentRating                            : ru-movie|18+|400|

Video #1
ID                                       : 1
Format                                   : AVC
Format/Info                              : Advanced Video Codec
Format profile                           : [email protected]
Format settings                          : CABAC / 5 Ref Frames
Format settings, CABAC                   : Yes
Format settings, ReFrames                : 5 frames
Codec ID                                 : avc1
Codec ID/Info                            : Advanced Video Coding
Duration                                 : 1h 35mn
Bit rate                                 : 4 531 Kbps
Width                                    : 1 908 pixels
Height                                   : 792 pixels
Display aspect ratio                     : 2.40:1
Frame rate mode                          : Variable
Frame rate                               : 23.976 fps
Minimum frame rate                       : 23.810 fps
Maximum frame rate                       : 24.390 fps
Color space                              : YUV
Chroma subsampling                       : 4:2:0
Bit depth                                : 8 bits
Scan type                                : Progressive
Bits/(Pixel*Frame)                       : 0.125
Stream size                              : 3.02 GiB (89%)
Title                                    : Main Program
Language                                 : Russian
Encoded date                             : UTC 2019-06-10 22:44:08
Tagged date                              : UTC 2019-06-10 22:44:24
Color range                              : Limited
Color primaries                          : BT.709
Transfer characteristics                 : BT.709
Matrix coefficients                      : BT.709
Menus                                    : 4,5
Codec configuration box                  : avcC

Video #2
ID                                       : 5
Format                                   : JPEG
Codec ID                                 : jpeg
Duration                                 : 1h 35mn
Bit rate mode                            : Variable
Bit rate                                 : 547 bps
Width                                    : 640 pixels
Height                                   : 265 pixels
Display aspect ratio                     : 2.40:1
Frame rate mode                          : Variable
Frame rate                               : 0.002 fps
Minimum frame rate                       : 0.001 fps
Maximum frame rate                       : 0.005 fps
Color space                              : YUV
Chroma subsampling                       : 4:2:0
Bit depth                                : 8 bits
Compression mode                         : Lossy
Bits/(Pixel*Frame)                       : 1.613
Stream size                              : 334 KiB (0%)
Title                                    : Chapter Images
Language                                 : Russian
Default                                  : No
Encoded date                             : UTC 2019-06-10 22:44:27
Tagged date                              : UTC 2019-06-10 22:44:28
Menu For                                 : 1
ColorSpace_ICC                           : RGB

Audio #1
ID                                       : 2
Format                                   : AAC LC
Format/Info                              : Advanced Audio Codec Low Complexity
Codec ID                                 : mp4a-40-2
Duration                                 : 1h 35mn
Source duration                          : 1h 35mn
Bit rate mode                            : Variable
Bit rate                                 : 156 Kbps
Maximum bit rate                         : 234 Kbps
Channel(s)                               : 2 channels
Channel layout                           : L R
Sampling rate                            : 48.0 KHz
Frame rate                               : 46.875 fps (1024 SPF)
Compression mode                         : Lossy
Stream size                              : 106 MiB (3%)
Source stream size                       : 106 MiB (3%)
Title                                    : Russian Stereo
Language                                 : Russian
Default                                  : Yes
Alternate group                          : 1
Encoded date                             : UTC 2019-06-10 22:44:08
Tagged date                              : UTC 2019-06-10 22:44:12
Fallback From                            : 3

Audio #2
ID                                       : 3
Format                                   : AC-3
Format/Info                              : Audio Coding 3
Commercial name                          : Dolby Digital
Codec ID                                 : ac-3
Duration                                 : 1h 35mn
Bit rate mode                            : Constant
Bit rate                                 : 384 Kbps
Channel(s)                               : 6 channels
Channel layout                           : L R C LFE Ls Rs
Sampling rate                            : 48.0 KHz
Frame rate                               : 31.250 fps (1536 SPF)
Bit depth                                : 16 bits
Compression mode                         : Lossy
Stream size                              : 262 MiB (8%)
Title                                    : Russian DD 5.1
Language                                 : Russian
Service kind                             : Complete Main
Default                                  : Inherited From: 2
Alternate group                          : 1
Encoded date                             : UTC 2019-06-10 22:44:08
Tagged date                              : UTC 2019-06-10 22:44:24
Fallback To                              : 2

Menu #1
00:00:00.000                             : 1
00:03:57.000                             : 2
00:15:08.000                             : 3
00:25:40.000                             : 4
00:36:36.000                             : 5
00:48:28.000                             : 6
01:01:02.000                             : 7
01:12:21.000                             : 8
01:24:12.000                             : 9
01:31:39.000                             : 10

Menu #2
ID                                       : 4
Codec ID                                 : text
Duration                                 : 1h 35mn
Language                                 : Russian
Encoded date                             : UTC 2019-06-10 22:44:24
Tagged date                              : UTC 2019-06-10 22:44:24
Menu For                                 : 1
00:00:00.000                             : 1
00:03:57.000                             : 2
00:15:08.000                             : 3
00:25:40.000                             : 4
00:36:36.000                             : 5
00:48:28.000                             : 6
01:01:02.000                             : 7
01:12:21.000                             : 8
01:24:12.000                             : 9
01:31:39.000                             : 10

Скриншоты

image image image image image image


imageimageimageimage
Релиз подготовлен для просмотра на Apple TV, iPad, iPhone, iPod Touch.
Для просмотра данного релиза на компьютере с ОС Windows рекомендуется использовать VLC media player


More at ibit.to
And ibit.uno
And ibit.ws

Comments

Files

Na.Parizh.WEB-DL.1080p.m4v 3.6 GB

Stream

Downloading Seeding Na.Parizh.WEB-DL.1080p.m4v from to 0 peers.
of
0 b/s / ↗0 b/s