• 6
  • 0
Sponsored Downloadondemand_video

Description

NTT IndyCar Series 2019

 

 

DXC Technology 600

Texas Motor Speedway - Fort Worth, TX

8:45 PM ET Jun08 2019

image

image

image

General

Complete name                            : NTT Indycar Series 2019 DXC Technology 600 Texas HDTV x264 720.mkv

Format                                   : Matroska

Format version                           : Version 4

File size                                : 2.62 GiB

Duration                                 : 1 h 42 min

Overall bit rate                         : 3 655 kb/s

Encoded date                             : UTC 2019-06-09 03:18:02

Writing application                      : mkvmerge v33.0.0 ('A Little Bit of Madness') 64-bit

Writing library                          : libebml v1.3.7 + libmatroska v1.5.0

Video

ID                                       : 1

Format                                   : AVC

Format/Info                              : Advanced Video Codec

Format profile                           : [email protected]

Format settings                          : CABAC / 5 Ref Frames

Format settings, CABAC                   : Yes

Format settings, RefFrames               : 5 frames

Codec ID                                 : V_MPEG4/ISO/AVC

Duration                                 : 1 h 42 min

Bit rate                                 : 3 267 kb/s

Width                                    : 1 280 pixels

Height                                   : 720 pixels

Display aspect ratio                     : 16:9

Frame rate mode                          : Constant

Frame rate                               : 59.940 (59940/1000) FPS

Original frame rate                      : 59.940 (60000/1001) FPS

Color space                              : YUV

Chroma subsampling                       : 4:2:0

Bit depth                                : 8 bits

Scan type                                : Progressive

Bits/(Pixel*Frame)                       : 0.059

Stream size                              : 2.34 GiB (89%)

Writing library                          : x264 core 152 r2851 ba24899

Default                                  : Yes

Forced                                   : No

Audio

ID                                       : 2

Format                                   : AC-3

Format/Info                              : Audio Coding 3

Commercial name                          : Dolby Digital

Codec ID                                 : A_AC3

Duration                                 : 1 h 42 min

Bit rate mode                            : Constant

Bit rate                                 : 384 kb/s

Channel(s)                               : 6 channels

Channel layout                           : L R C LFE Ls Rs

Sampling rate                            : 48.0 kHz

Frame rate                               : 31.250 FPS (1536 SPF)

Bit depth                                : 16 bits

Compression mode                         : Lossy

Stream size                              : 282 MiB (11%)

Language                                 : new

Service kind                             : Complete Main

Default                                  : Yes

Forced                                   : No


More at ibit.to
And ibit.uno
And ibit.ws

Comments

Files

Downloaded From.txt 121 B
indycar.txt 5.5 kB
NTT Indycar Series 2019 DXC Technology 600 Texas HDTV x264 720.mkv 2.6 GB

Stream

Downloading Seeding NTT Indycar Series 2019 DXC Technology 600 Texas HDTV x264 720 from to 0 peers.
of
0 b/s / ↗0 b/s