• 0
  • 0
  • done
Anonymous Downloadondemand_video
Warning! Use a VPN When Downloading Torrents!
Your IP Address is ,
Your Internet Provider can see when you download torrents! Hide your IP ADDRESS with a VPN
We strongly recommend Trust.Zone VPN to hide your torrenting. It's FREE!
DOWNLOAD VPN
63%

Murder Mystery (2019)

  • Comedy Crime Mystery Action
  • After attending a gathering on a billionaire's yacht during a European vacation, a New York cop and his wife become prime suspects when he's murdered.

    expand_more
    English
  • $24,000,000
  • Description

    Загадочное убийство

    Murder Mystery

    image

    image

    Страна : США

    Жанр : боевик, комедия, криминал, детектив

    Год выпуска : 2019

    Продолжительность : 01:37:46

    Перевод : Профессиональный (полное дублирование) [Пифагор]

    Субтитры : русские (форсированные, полные), английские (полные, SDH)

    Оригинальная аудиодорожка : английский

    Режиссер : Кайл Ньюачек / Kyle Newacheck

    В ролях : Адам Сэндлер, Дженнифер Энистон, Люк Эванс, Теренс Стэмп, Джемма Артертон, Дэни Бун, Джон Кани, Адиль Ахтар, Оулавюр Дарри Оулафссон, Луис Херардо Мендес, Сиори Куцуна, Эрик Гриффин

    Описание : После 15 лет брака американская супружеская пара Ник и Одри Шпиц, полицейский и парикмахерша, наконец-то отправляется в отпуск в Европу. В самолёте супруга умудряется познакомиться с английским аристократом, и тот приглашает их с мужем провести время на яхте дяди - известного миллиардера. Супруги Шпиц оказываются в высшем обществе в окружении невиданной роскоши, когда вдруг престарелого главу семейства убивают при загадочных обстоятельствах. Мотивы есть у всех присутствующих, но французский детектив решает, что главные подозреваемые - американцы, при этом большая любительница детективов Одри видит в этой ситуации главное приключение свой жизни.

    image image

    Автор рипа : stalkerok

    Сэмпл

    Качество видео : WEB-DLRip-AVC | Murder.Mystery.2019.1080p.NF.WEB-DL.DDP5.1.x264-EniaHD (NTG)

    Формат видео : MKV

    Видео кодек : AVC

    Аудио кодек : AC3, AAC

    Видео : AVC, 1501 Кбит/сек, 1056x528 (2.000), 24 кадр/сек

    Аудио №1 : AC3, 448 Кбит/сек, 48 КГц, 5.1 - русский

    Аудио №2 : AAC, 192 Кбит/сек, 48 КГц, 5.1 - английский

    x264/MediaInfo

    ---[Information] [20.06.2019 15:34:19] x264 [info]: frame I:1554 Avg QP:16.81 size: 63325
    ---[Information] [20.06.2019 15:34:19] x264 [info]: frame P:30687 Avg QP:19.40 size: 16811
    ---[Information] [20.06.2019 15:34:19] x264 [info]: frame B:108555 Avg QP:20.96 size: 4487

    General
    Unique ID : 198406051977459396602381084087048125333 (0x95439D9C3A6EB6245AA1F6E919B6BB95)
    Complete name : M:tempMurder.MysteryMurder.Mystery.2019.WEB-DLRip.x264.Rus.Eng.stalkerok.New-Team.mkv
    Format : Matroska
    Format version : Version 4
    File size : 1.46 GiB
    Duration : 1 h 37 min
    Overall bit rate : 2 144 kb/s
    Movie name : Murder Mystery (2019) | Rip by stalkerok
    Encoded date : UTC 2019-06-20 13:23:22
    Writing application : mkvmerge v33.1.0 ('Primrose') 64-bit
    Writing library : libebml v1.3.7 + libmatroska v1.5.0

    Video
    ID : 1
    Format : AVC
    Format/Info : Advanced Video Codec
    Format profile : [email protected]
    Format settings : CABAC / 12 Ref Frames
    Format settings, CABAC : Yes
    Format settings, RefFrames : 12 frames
    Codec ID : VMPEG4/ISO/AVC
    Duration : 1 h 37 min
    Bit rate : 1 502 kb/s
    Width : 1 056 pixels
    Height : 528 pixels
    Display aspect ratio : 2.000
    Frame rate mode : Constant
    Frame rate : 24.000 FPS
    Color space : YUV
    Chroma subsampling : 4:2:0
    Bit depth : 8 bits
    Scan type : Progressive
    Bits/(Pixel*Frame) : 0.112
    Stream size : 1.03 GiB (70%)
    Title : Murder Mystery (2019) | Rip by stalkerok
    Writing library : x264 core 157 r2969 d4099dd
    Encoding settings : cabac=1 / ref=12 / deblock=1:-3:-2 / analyse=0x3:0x133 / me=umh / subme=11 / psy=1 / psy
    rd=1.00:0.00 / mixedref=1 / merange=32 / chromame=1 / trellis=2 / 8x8dct=1 / cqm=0 / deadzone=21,11 / fastpskip=0 / chromaqpoffset=-2 / threads=12 / lookaheadthreads=3 / slicedthreads=0 / nr=0 / decimate=1 / interlaced=0 / bluraycompat=0 / constrainedintra=0 / bframes=14 / bpyramid=2 / badapt=2 / bbias=0 / direct=3 / weightb=1 / opengop=0 / weightp=2 / keyint=240 / keyintmin=23 / scenecut=40 / intrarefresh=0 / rclookahead=60 / rc=crf / mbtree=0 / crf=18.5 / qcomp=0.65 / qpmin=0 / qpmax=69 / qpstep=4 / vbvmaxrate=50000 / vbvbufsize=62500 / crfmax=0.0 / nalhrd=none / filler=0 / ipratio=1.40 / pb_ratio=1.30 / aq=3:0.80 / zones=126515,140795,q=32
    Default : Yes
    Forced : No

    Audio #1
    ID : 2
    Format : AC-3
    Format/Info : Audio Coding 3
    Commercial name : Dolby Digital
    Codec ID : A_AC3
    Duration : 1 h 37 min
    Bit rate mode : Constant
    Bit rate : 448 kb/s
    Channel(s) : 6 channels
    Channel layout : L R C LFE Ls Rs
    Sampling rate : 48.0 kHz
    Frame rate : 31.250 FPS (1536 SPF)
    Bit depth : 16 bits
    Compression mode : Lossy
    Stream size : 313 MiB (21%)
    Language : Russian
    Service kind : Complete Main
    Default : Yes
    Forced : No

    Audio #2
    ID : 3
    Format : AAC LC SBR
    Format/Info : Advanced Audio Codec Low Complexity with Spectral Band Replication
    Commercial name : HE-AAC
    Format settings : Explicit
    Codec ID : A_AAC-2
    Duration : 1 h 37 min
    Bit rate : 192 kb/s
    Channel(s) : 6 channels
    Channel layout : C L R Ls Rs LFE
    Sampling rate : 48.0 kHz
    Frame rate : 23.438 FPS (2048 SPF)
    Compression mode : Lossy
    Delay relative to video : 31 ms
    Stream size : 134 MiB (9%)
    Language : English
    Default : No
    Forced : No

    Text #1
    ID : 4
    Format : UTF-8
    Codec ID : S_TEXT/UTF8
    Codec ID/Info : UTF-8 Plain Text
    Duration : 1 h 36 min
    Bit rate : 0 b/s
    Count of elements : 15
    Stream size : 567 Bytes (0%)
    Title : Forced
    Language : Russian
    Default : Yes
    Forced : No

    Text #2
    ID : 5
    Format : UTF-8
    Codec ID : S_TEXT/UTF8
    Codec ID/Info : UTF-8 Plain Text
    Duration : 1 h 36 min
    Bit rate : 118 b/s
    Count of elements : 1674
    Stream size : 83.9 KiB (0%)
    Title : Full
    Language : Russian
    Default : No
    Forced : No

    Text #3
    ID : 6
    Format : UTF-8
    Codec ID : S_TEXT/UTF8
    Codec ID/Info : UTF-8 Plain Text
    Duration : 1 h 28 min
    Bit rate : 100 b/s
    Count of elements : 1898
    Stream size : 64.9 KiB (0%)
    Title : Full
    Language : English
    Default : No
    Forced : No

    Text #4
    ID : 7
    Format : UTF-8
    Codec ID : S_TEXT/UTF8
    Codec ID/Info : UTF-8 Plain Text
    Duration : 1 h 28 min
    Bit rate : 106 b/s
    Count of elements : 2035
    Stream size : 69.2 KiB (0%)
    Title : SDH
    Language : English
    Default : No
    Forced : No

    Скриншоты

    image image image image image image

    image


    More at ibit.to
    And ibit.uno
    And ibit.ws

    Reviews

    Comments

    Files

    Murder.Mystery.2019.WEB-DLRip.x264.Rus.Eng.stalkerok.New-Team.mkv 1.6 GB

    Stream

    Downloading Seeding Murder.Mystery.2019.WEB-DLRip.x264.Rus.Eng.stalkerok.New-Team.mkv from to 0 peers.
    of
    0 b/s / ↗0 b/s