• 10
  • 1
  • done
Anonymous Downloadondemand_video
  • Murder Mystery (2019).720p.h264.ita.eng.sub.eng MIRCrew
  • 1.8 GB
  • robbyrs
  • Murder Mystery 2019 720p h264 ita eng sub MIRCrew
  • English
  • HD 720p
Warning! Use a VPN When Downloading Torrents!
Your IP Address is ,
Your Internet Provider can see when you download torrents! Hide your IP ADDRESS with a VPN
We strongly recommend Trust.Zone VPN to hide your torrenting. It's FREE!
DOWNLOAD VPN
63%

Murder Mystery (2019)

  • Comedy Crime Mystery Action
  • After attending a gathering on a billionaire's yacht during a European vacation, a New York cop and his wife become prime suspects when he's murdered.

    expand_more
    English
  • $24,000,000
  • Description

    Murder Mystery (2019).720p.H264.ita.eng.Ac3-5.1.sub.eng-MIRCrew

    image

    NO FOUND ONLY ORIGINAL RELEASE

    My release is always in double track audio italian and Original audio

    for select it use VLC or dvd player home

    not use wmp

    Murder Mystery (2019)

    Quality MIRCrew on HD 720p da  1,8 gb

    image

    image

    image

    image

    Lingua originale    inglese

    Paese di produzione    Stati Uniti d'America

    Anno    2019

    Durata    97 min

    Genere    azione, commedia, giallo, drammatico, sentimentale, thriller

    Regia    Kyle Newacheck

    Sceneggiatura    James Vanderbilt

    image

        Adam Sandler: Nick Spitz

        Jennifer Aniston: Audrey Spitz

        Luke Evans: Charles Cavendish

        Gemma Arterton: Grace Ballard

        Terence Stamp: Malcolm Quince

        David Walliams: Tobias Quince

        Luis Gerardo Mendez: Juan Carlos Rivera

        Dany Boon: ispettore Laurent Delacroix

        Shiori Kutsuna: Suzi Nakamura

        Adeel Akhtar: maharajah Vikram Govindan

        John Kani: colonnello Ulenga

        Ólafur Darri Ólafsson: Sergei

        Erik Griffin: Jimmy

        Sufe Bradshaw: Holly

    image

    Nick Spitz, poliziotto di New York, promette a sua moglie Audrey una luna di miele in Europa, che va in porto per il loro quindicesimo anniversario. Il piano era quello di fare un viaggio continentale in autobus. Sull'aereo direzione Spagna, Audrey incontra un ricco uomo che promette ai coniugi Spitz una vacanza in yacht.

    image

    A New York cop and his wife go on a European vacation to reinvigorate the spark in their marriage, but end up getting framed and on the run for the death of an elderly billionaire.

    image   

    image image image image

    image

    General

    Complete name                            : Murder Mystery (2019).720p.h264.ita.eng.sub.eng MIRCrewMurder Mystery (2019).720p.h264.ita.eng.sub.eng MIRCrew.mkv

    Format                                   : Matroska

    Format version                           : Version 2

    File size                                : 1.83 GiB

    Duration                                 : 1h 37mn

    Overall bit rate                         : 2 673 Kbps

    Movie name                               : MIRCrew

    Encoded date                             : UTC 2019-06-16T12:28:20Z

    Writing application                      : mkvmerge v5.8.0 ('No Sleep / Pillow') built on Sep  2 2012 15:37:04

    Writing library                          : Lavf55.12.0

    Video

    ID                                       : 1

    Format                                   : AVC

    Format/Info                              : Advanced Video Codec

    Format profile                           : [email protected]

    Format settings, CABAC                   : Yes

    Format settings, ReFrames                : 4 frames

    Codec ID                                 : V_MPEG4/ISO/AVC

    Duration                                 : 1h 37mn

    Bit rate                                 : 1 724 Kbps

    Nominal bit rate                         : 1 900 Kbps

    Width                                    : 1 280 pixels

    Height                                   : 640 pixels

    Display aspect ratio                     : 2.000

    Frame rate                               : 24.000 fps

    Color space                              : YUV

    Chroma subsampling                       : 4:2:0

    Bit depth                                : 8 bits

    Scan type                                : Progressive

    Bits/(Pixel*Frame)                       : 0.088

    Stream size                              : 1.18 GiB (64%)

    Title                                    : MIRCrew

    Writing library                          : x264 core 142 r2479 dd79a61

    Encoding settings                        : cabac=1 / ref=1 / deblock=1:0:0 / analyse=0x1:0x111 / me=hex / subme=2 / psy=1 / psyrd=1.00:0.00 / mixedref=0 / merange=16 / chromame=1 / trellis=0 / 8x8dct=0 / cqm=0 / deadzone=21,11 / fastpskip=1 / chromaqpoffset=0 / threads=9 / lookaheadthreads=3 / slicedthreads=0 / nr=0 / decimate=1 / interlaced=0 / bluraycompat=0 / constrainedintra=0 / bframes=3 / bpyramid=2 / badapt=1 / bbias=0 / direct=1 / weightb=1 / opengop=0 / weightp=1 / keyint=240 / keyintmin=24 / scenecut=40 / intrarefresh=0 / rclookahead=10 / rc=abr / mbtree=1 / bitrate=1900 / ratetol=1.0 / qcomp=0.60 / qpmin=0 / qpmax=69 / qpstep=4 / vbvmaxrate=50000 / vbvbufsize=62500 / nalhrd=none / filler=0 / ipratio=1.40 / aq=1:1.00

    Language                                 : Italian

    Default                                  : Yes

    Forced                                   : No

    Color primaries                          : BT.709-5, BT.1361, IEC 61966-2-4, SMPTE RP177

    Transfer characteristics                 : BT.709-5, BT.1361

    Matrix coefficients                      : BT.709-5, BT.1361, IEC 61966-2-4 709, SMPTE RP177

    Audio #1

    ID                                       : 2

    Format                                   : AC-3

    Format/Info                              : Audio Coding 3

    Mode extension                           : CM (complete main)

    Codec ID                                 : A_AC3

    Duration                                 : 1h 37mn

    Bit rate mode                            : Constant

    Bit rate                                 : 448 Kbps

    Channel(s)                               : 6 channels

    Channel positions                        : Front: L C R, Side: L R, LFE

    Sampling rate                            : 48.0 KHz

    Bit depth                                : 16 bits

    Compression mode                         : Lossy

    Delay relative to video                  : -5ms

    Stream size                              : 313 MiB (17%)

    Title                                    : Ita Ac3 5.1

    Language                                 : Italian

    Default                                  : Yes

    Forced                                   : No

    Audio #2

    ID                                       : 3

    Format                                   : AC-3

    Format/Info                              : Audio Coding 3

    Mode extension                           : CM (complete main)

    Codec ID                                 : A_AC3

    Duration                                 : 1h 37mn

    Bit rate mode                            : Constant

    Bit rate                                 : 448 Kbps

    Channel(s)                               : 6 channels

    Channel positions                        : Front: L C R, Side: L R, LFE

    Sampling rate                            : 48.0 KHz

    Bit depth                                : 16 bits

    Compression mode                         : Lossy

    Delay relative to video                  : -5ms

    Stream size                              : 313 MiB (17%)

    Title                                    : Eng Ac3 5.1

    Language                                 : English

    Default                                  : No

    Forced                                   : No


    More at ibit.to
    And ibit.uno
    And ibit.ws

    Reviews

    Comments

    Files

    Murder Mystery (2019).720p.h264.ita.eng.sub.eng MIRCrew.eng.srt 140 kB
    Murder Mystery (2019).720p.h264.ita.eng.sub.eng MIRCrew.mkv 1.8 GB

    Stream

    Downloading Seeding Murder Mystery (2019).720p.h264.ita.eng.sub.eng MIRCrew from to 0 peers.
    of
    0 b/s / ↗0 b/s