• 1
  • 0
  • 836
  • done
Anonymous Downloadondemand_video
  • Mowgli (2018) WEB-DL 1080p | Rus / Eng
  • 4.7 GB
  • Wilmots
  • Mowgli 2018 1080p WEB Rus Eng
  • English
  • HD
Warning! Use a VPN When Downloading Torrents!
Your IP Address is ,
Your Internet Provider can see when you download torrents! Hide your IP ADDRESS with a VPN
We strongly recommend Trust.Zone VPN to hide your torrenting. It's FREE!
DOWNLOAD VPN
66%

Mowgli: Legend of the Jungle (2018)

  • Adventure Drama
  • A human child raised by wolves, must face off against a menacing tiger named Shere Khan, as well as his own origins.

    expand_more
    English
  • $175,000,000
  • Description

    Маугли / Mowgli

    «Изгой. Воин. Легенда»


    image

    Год выпуска : 2018

    Страна : Великобритания, США

    Студия : Imaginarium Productions, Warner Bros., Netflix

    Жанр : драма, приключения

    Продолжительность : 01:44:52

    Перевод : Профессиональный (дублированный) |

    Пифагор

    Субтитры : русские (форсированные, полные), английские (форсированные, полные) и др.

    Оригинальная аудиодорожка : английская

    Режиссер : Энди Серкис / Andy Serkis

    В ролях : Роэн Чанд (Mowgli) , Кристиан Бэйл (Bagheera) , Кейт Бланшетт (Kaa, озвучка) , Бенедикт Камбербэтч (Shere Khan) , Наоми Харрис (Nisha) , Энди Серкис (Baloo) , Питер Муллан (Akela) , Джек Рейнор (Brother Wolf) , Эдди Марсан (Vihaan) , Том Холландер (Tabaqui) , Мэттью Риз (Lockwood) , Фрида Пинто (Messua)

    Описание : История о взрослении ребёнка по имени Маугли в волчьей стае в джунглях Индии. Он учится суровым законам джунглей под опекой медведя Балу и пантеры Багиры и принимает обитателей диких джунглей за своих. Всех, кроме одного: страшного тигра Шерхана. Но вскоре мальчику предстоит узнать, что в джунглях его могут поджидать куда большие опасности, чем тигр, и одна из них — его собственное человеческое происхождение, с которым ему придётся столкнуться лицом к лицу, словно с зубастым хищником.

    image

    Релиз :

    [email protected]

    Сэмпл

    Тип релиза : WEB-DL 1080p |

    Mowgli.Legend.Of.The.Jungle.2018.1080p.NF.WEB-DL.DD5.1.X264-NTG

    Контейнер : MKV

    Видео : AVC, 1920x1080 (16:9), 23.976 fps, ~5360 kbps

    Аудио 1 : E-AC3, 48 KHz, 6 ch, 640 kbps (Дубляж)

    Аудио 2 : E-AC3+Atmos, 48 KHz, 6 ch, 448 kbps (Original)

    Формат субтитров : softsub (SRT)

    MediaInfo

    `General
    Unique ID : 327124169858864697499130252183455347072 (0xF619D2CC12945F87021FC3A34F9F3180)
    Complete name : Mowgli.Legend.of.the.Jungle.2018.1080p.NF.WEB-DL.DDP5.1.x264-EniaHD.mkv
    Format : Matroska
    Format version : Version 4 / Version 2
    File size : 4.69 GiB
    Duration : 1 h 44 min
    Overall bit rate mode : Variable
    Overall bit rate : 6 401 kb/s
    Movie name : Mowgli: Legend of the Jungle (2018) - EniaHD
    Encoded date : UTC 2018-12-07 09:16:45
    Writing application : mkvmerge v29.0.0 ('Like It Or Not') 64-bit
    Writing library : libebml v1.3.6 + libmatroska v1.4.9

    Video
    ID : 1
    Format : AVC
    Format/Info : Advanced Video Codec
    Format profile : [email protected]
    Format settings : CABAC / 3 Ref Frames
    Format settings, CABAC : Yes
    Format settings, ReFrames : 3 frames
    Codec ID : VMPEG4/ISO/AVC
    Duration : 1 h 44 min
    Bit rate mode : Variable
    Bit rate : 5 360 kb/s
    Maximum bit rate : 8 040 kb/s
    Width : 1 920 pixels
    Height : 1 080 pixels
    Display aspect ratio : 16:9
    Frame rate mode : Constant
    Frame rate : 23.976 (24000/1001) FPS
    Color space : YUV
    Chroma subsampling : 4:2:0
    Bit depth : 8 bits
    Scan type : Progressive
    Bits/(Pixel*Frame) : 0.108
    Stream size : 3.89 GiB (83%)
    Writing library : x264 core 148 r2715 7e75228
    Encoding settings : cabac=1 / ref=3 / deblock=1:0:0 / analyse=0x1:0x111 / me=umh / subme=10 / psy=1 / psy
    rd=1.00:0.00 / mixedref=1 / merange=24 / chromame=1 / trellis=2 / 8x8dct=0 / cqm=0 / deadzone=21,11 / fastpskip=1 / chromaqpoffset=-2 / threads=8 / lookaheadthreads=1 / slicedthreads=0 / nr=0 / decimate=1 / interlaced=0 / bluraycompat=0 / stitchable=1 / constrainedintra=0 / bframes=2 / bpyramid=0 / badapt=2 / bbias=0 / direct=3 / weightb=1 / opengop=0 / weightp=2 / keyint=48 / keyintmin=25 / scenecut=0 / intrarefresh=0 / rclookahead=48 / rc=2pass / mbtree=1 / bitrate=5360 / ratetol=1.0 / qcomp=0.50 / qpmin=6 / qpmax=51 / qpstep=4 / cplxblur=20.0 / qblur=0.5 / vbvmaxrate=8040 / vbvbufsize=10720 / nalhrd=vbr / filler=0 / ip_ratio=1.40 / aq=1:1.00
    Default : Yes
    Forced : No

    Audio #1
    ID : 2
    Format : E-AC-3
    Format/Info : Enhanced Audio Coding 3
    Codec ID : A_EAC3
    Duration : 1 h 44 min
    Bit rate mode : Constant
    Bit rate : 640 kb/s
    Channel(s) : 6 channels
    Channel positions : Front: L C R, Side: L R, LFE
    Sampling rate : 48.0 kHz
    Frame rate : 187.500 FPS (256 SPF)
    Compression mode : Lossy
    Stream size : 480 MiB (10%)
    Title : Dub
    Language : Russian
    Service kind : Complete Main
    Default : Yes
    Forced : No

    Audio #2
    ID : 3
    Format : E-AC-3
    Format/Info : Enhanced Audio Coding 3
    Format profile : E-AC-3+Atmos / E-AC-3
    Codec ID : A_EAC3
    Duration : 1 h 44 min
    Bit rate mode : Constant
    Bit rate : 448 kb/s
    Channel(s) : 15 objects / 6 channels
    Channel positions : 15 objects / Front: L C R, Side: L R, LFE
    Sampling rate : 48.0 kHz
    Frame rate : 187.500 FPS (256 SPF)
    Compression mode : Lossy
    Stream size : 336 MiB (7%)
    Language : English
    Service kind : Complete Main
    Default : No
    Forced : No

    Text #1
    ID : 4
    Format : UTF-8
    Codec ID : S_TEXT/UTF8
    Codec ID/Info : UTF-8 Plain Text
    Duration : 33 min 34 s
    Bit rate : 2 b/s
    Count of elements : 13
    Stream size : 532 Bytes (0%)
    Title : Forced
    Language : Russian
    Default : Yes
    Forced : Yes

    Text #2
    ID : 5
    Format : UTF-8
    Codec ID : S_TEXT/UTF8
    Codec ID/Info : UTF-8 Plain Text
    Duration : 1 h 36 min
    Bit rate : 40 b/s
    Count of elements : 677
    Stream size : 28.7 KiB (0%)
    Title : Full
    Language : Russian
    Default : No
    Forced : No

    Text #3
    ID : 6
    Format : UTF-8
    Codec ID : S_TEXT/UTF8
    Codec ID/Info : UTF-8 Plain Text
    Duration : 7 min 38 s
    Bit rate : 3 b/s
    Count of elements : 10
    Stream size : 229 Bytes (0%)
    Title : Forced
    Language : English
    Default : No
    Forced : No

    Text #4
    ID : 7
    Format : UTF-8
    Codec ID : S_TEXT/UTF8
    Codec ID/Info : UTF-8 Plain Text
    Duration : 1 h 43 min
    Bit rate : 38 b/s
    Count of elements : 1213
    Stream size : 28.9 KiB (0%)
    Title : SDH
    Language : English
    Default : No
    Forced : No

    Text #5
    ID : 8
    Format : UTF-8
    Codec ID : S_TEXT/UTF8
    Codec ID/Info : UTF-8 Plain Text
    Duration : 1 h 34 min
    Bit rate : 24 b/s
    Count of elements : 693
    Stream size : 17.3 KiB (0%)
    Language : English
    Default : No
    Forced : No

    Text #6
    ID : 9
    Format : UTF-8
    Codec ID : S_TEXT/UTF8
    Codec ID/Info : UTF-8 Plain Text
    Duration : 1 h 36 min
    Bit rate : 45 b/s
    Count of elements : 706
    Stream size : 32.3 KiB (0%)
    Language : Arabic
    Default : No
    Forced : No

    Text #7
    ID : 10
    Format : UTF-8
    Codec ID : S_TEXT/UTF8
    Codec ID/Info : UTF-8 Plain Text
    Duration : 1 h 36 min
    Bit rate : 24 b/s
    Count of elements : 730
    Stream size : 17.3 KiB (0%)
    Language : Danish
    Default : No
    Forced : No

    Text #8
    ID : 11
    Format : UTF-8
    Codec ID : S_TEXT/UTF8
    Codec ID/Info : UTF-8 Plain Text
    Duration : 1 h 43 min
    Bit rate : 24 b/s
    Count of elements : 767
    Stream size : 18.9 KiB (0%)
    Language : German
    Default : No
    Forced : No

    Text #9
    ID : 12
    Format : UTF-8
    Codec ID : S_TEXT/UTF8
    Codec ID/Info : UTF-8 Plain Text
    Duration : 1 h 36 min
    Bit rate : 40 b/s
    Count of elements : 725
    Stream size : 28.6 KiB (0%)
    Language : Greek
    Default : No
    Forced : No

    Text #10
    ID : 13
    Format : UTF-8
    Codec ID : S_TEXT/UTF8
    Codec ID/Info : UTF-8 Plain Text
    Duration : 1 h 35 min
    Bit rate : 23 b/s
    Count of elements : 723
    Stream size : 16.3 KiB (0%)
    Language : Spanish
    Default : No
    Forced : No

    Text #11
    ID : 14
    Format : UTF-8
    Codec ID : S_TEXT/UTF8
    Codec ID/Info : UTF-8 Plain Text
    Duration : 1 h 35 min
    Bit rate : 24 b/s
    Count of elements : 705
    Stream size : 17.2 KiB (0%)
    Title : European
    Language : Spanish
    Default : No
    Forced : No

    Text #12
    ID : 15
    Format : UTF-8
    Codec ID : S_TEXT/UTF8
    Codec ID/Info : UTF-8 Plain Text
    Duration : 1 h 36 min
    Bit rate : 24 b/s
    Count of elements : 630
    Stream size : 17.2 KiB (0%)
    Language : Finnish
    Default : No
    Forced : No

    Text #13
    ID : 16
    Format : UTF-8
    Codec ID : S_TEXT/UTF8
    Codec ID/Info : UTF-8 Plain Text
    Duration : 1 h 36 min
    Bit rate : 27 b/s
    Count of elements : 704
    Stream size : 19.4 KiB (0%)
    Language : French
    Default : No
    Forced : No

    Text #14
    ID : 17
    Format : UTF-8
    Codec ID : S_TEXT/UTF8
    Codec ID/Info : UTF-8 Plain Text
    Duration : 1 h 36 min
    Bit rate : 37 b/s
    Count of elements : 738
    Stream size : 26.8 KiB (0%)
    Language : Hebrew
    Default : No
    Forced : No

    Text #15
    ID : 18
    Format : UTF-8
    Codec ID : S_TEXT/UTF8
    Codec ID/Info : UTF-8 Plain Text
    Duration : 1 h 35 min
    Bit rate : 61 b/s
    Count of elements : 690
    Stream size : 43.2 KiB (0%)
    Language : Hindi
    Default : No
    Forced : No

    Text #16
    ID : 19
    Format : UTF-8
    Codec ID : S_TEXT/UTF8
    Codec ID/Info : UTF-8 Plain Text
    Duration : 1 h 43 min
    Bit rate : 26 b/s
    Count of elements : 816
    Stream size : 19.7 KiB (0%)
    Language : Indonesian
    Default : No
    Forced : No

    Text #17
    ID : 20
    Format : UTF-8
    Codec ID : S_TEXT/UTF8
    Codec ID/Info : UTF-8 Plain Text
    Duration : 1 h 36 min
    Bit rate : 24 b/s
    Count of elements : 729
    Stream size : 17.5 KiB (0%)
    Language : Italian
    Default : No
    Forced : No

    Text #18
    ID : 21
    Format : UTF-8
    Codec ID : S_TEXT/UTF8
    Codec ID/Info : UTF-8 Plain Text
    Duration : 1 h 36 min
    Bit rate : 23 b/s
    Count of elements : 734
    Stream size : 16.6 KiB (0%)
    Language : Japanese
    Default : No
    Forced : No

    Text #19
    ID : 22
    Format : UTF-8
    Codec ID : S_TEXT/UTF8
    Codec ID/Info : UTF-8 Plain Text
    Duration : 1 h 35 min
    Bit rate : 27 b/s
    Count of elements : 731
    Stream size : 19.1 KiB (0%)
    Language : Korean
    Default : No
    Forced : No

    Text #20
    ID : 23
    Format : UTF-8
    Codec ID : S_TEXT/UTF8
    Codec ID/Info : UTF-8 Plain Text
    Duration : 1 h 43 min
    Bit rate : 25 b/s
    Count of elements : 813
    Stream size : 19.5 KiB (0%)
    Language : Norwegian Bokmal
    Default : No
    Forced : No

    Text #21
    ID : 24
    Format : UTF-8
    Codec ID : S_TEXT/UTF8
    Codec ID/Info : UTF-8 Plain Text
    Duration : 1 h 43 min
    Bit rate : 25 b/s
    Count of elements : 800
    Stream size : 19.3 KiB (0%)
    Language : Dutch
    Default : No
    Forced : No

    Text #22
    ID : 25
    Format : UTF-8
    Codec ID : S_TEXT/UTF8
    Codec ID/Info : UTF-8 Plain Text
    Duration : 1 h 36 min
    Bit rate : 22 b/s
    Count of elements : 626
    Stream size : 16.1 KiB (0%)
    Language : Polish
    Default : No
    Forced : No

    Text #23
    ID : 26
    Format : UTF-8
    Codec ID : S_TEXT/UTF8
    Codec ID/Info : UTF-8 Plain Text
    Duration : 1 h 36 min
    Bit rate : 24 b/s
    Count of elements : 740
    Stream size : 17.6 KiB (0%)
    Language : Portuguese
    Default : No
    Forced : No

    Text #24
    ID : 27
    Format : UTF-8
    Codec ID : S_TEXT/UTF8
    Codec ID/Info : UTF-8 Plain Text
    Duration : 1 h 36 min
    Bit rate : 23 b/s
    Count of elements : 739
    Stream size : 17.0 KiB (0%)
    Title : Brazilian
    Language : Portuguese
    Default : No
    Forced : No

    Text #25
    ID : 28
    Format : UTF-8
    Codec ID : S_TEXT/UTF8
    Codec ID/Info : UTF-8 Plain Text
    Duration : 1 h 36 min
    Bit rate : 24 b/s
    Count of elements : 726
    Stream size : 17.5 KiB (0%)
    Language : Romanian
    Default : No
    Forced : No

    Text #26
    ID : 29
    Format : UTF-8
    Codec ID : S_TEXT/UTF8
    Codec ID/Info : UTF-8 Plain Text
    Duration : 1 h 36 min
    Bit rate : 24 b/s
    Count of elements : 642
    Stream size : 17.4 KiB (0%)
    Language : Swedish
    Default : No
    Forced : No

    Text #27
    ID : 30
    Format : UTF-8
    Codec ID : S_TEXT/UTF8
    Codec ID/Info : UTF-8 Plain Text
    Duration : 1 h 35 min
    Bit rate : 76 b/s
    Count of elements : 702
    Stream size : 53.4 KiB (0%)
    Language : Tamil
    Default : No
    Forced : No

    Text #28
    ID : 31
    Format : UTF-8
    Codec ID : S_TEXT/UTF8
    Codec ID/Info : UTF-8 Plain Text
    Duration : 1 h 35 min
    Bit rate : 68 b/s
    Count of elements : 702
    Stream size : 47.8 KiB (0%)
    Language : Telugu
    Default : No
    Forced : No

    Text #29
    ID : 32
    Format : UTF-8
    Codec ID : S_TEXT/UTF8
    Codec ID/Info : UTF-8 Plain Text
    Duration : 1 h 36 min
    Bit rate : 59 b/s
    Count of elements : 742
    Stream size : 42.4 KiB (0%)
    Language : Thai
    Default : No
    Forced : No

    Text #30
    ID : 33
    Format : UTF-8
    Codec ID : S_TEXT/UTF8
    Codec ID/Info : UTF-8 Plain Text
    Duration : 1 h 35 min
    Bit rate : 26 b/s
    Count of elements : 740
    Stream size : 18.3 KiB (0%)
    Language : Turkish
    Default : No
    Forced : No

    Text #31
    ID : 34
    Format : UTF-8
    Codec ID : S_TEXT/UTF8
    Codec ID/Info : UTF-8 Plain Text
    Duration : 1 h 36 min
    Bit rate : 20 b/s
    Count of elements : 732
    Stream size : 14.6 KiB (0%)
    Title : Simplified
    Language : Chinese
    Default : No
    Forced : No

    Text #32
    ID : 35
    Format : UTF-8
    Codec ID : S_TEXT/UTF8
    Codec ID/Info : UTF-8 Plain Text
    Duration : 1 h 36 min
    Bit rate : 21 b/s
    Count of elements : 741
    Stream size : 15.3 KiB (0%)
    Title : Traditional
    Language : Chinese
    Default : No
    Forced : No `

    Скриншоты

    imageimageimageimage


    More at ibit.to
    And ibit.uno
    And ibit.ws

    Reviews

    Two live-action _Jungle Book_ adaptations in as many (and a half) years. The general consensus seems to be that the Disney version is great, and this one is not. Personally, I'm not huge on either of them. But I can see strength in the argument that the other one is at least **better**. _Final rating:★★ - Had some things that appeal to me, but a poor finished product._

    Comments

    9 months ago

    Спасибо за релиз! Еще постер

    9 months ago

    pirs18 писал(а): 76455902Оригинальное название Mowgli На Netflix загляни и увидишь оригинальное название.

    9 months ago

    Вроде бы всё не так уж и плохо. Но с каких пор Каа стал девочкой?

    9 months ago

    violonice писал(а): 76464377Вроде бы всё не так уж и плохо. Но с каких пор Каа стал девочкой? С тех же пор, как Багира стал мальчиком))) Киплинг не даст соврать.

    9 months ago

    Каа барышня?? Балу и Шер-Хан бухают жетско??

    9 months ago

    уменя даже комп его не кажет. первый раз така муйня

    9 months ago

    gerasim777 писал(а): 76465068 violonice писал(а): 76464377Вроде бы всё не так уж и плохо. Но с каких пор Каа стал девочкой? С тех же пор, как Багира стал мальчиком))) Киплинг не даст соврать. между прочим - правильный вопрос! у Киплинга: Каа - "мальчик", что знакомо, а вот Багира - ... тоже "мальчик" , что непривычно, ведь мы воспитывались на "Маугли" разлива ссср. про фильм скажу так: мне "диснеевский" больше понравился. там больше юмора, экшена, песни знакомые, да и малышь-актер, сыгравший Маугли, как-то вроде более естественен в кадре. однако, если говорить о книге Киплинга, то фильм "маугли" более близок к тексту повествования о нем.кстати, нетфликс собирались показать фильм в конце 2016-го, но, когда дисней выкотил "Книга джунглей" в начале года, созрело естественное решение отодвинуть показ на пару лет.а вот теперь и у меня "странный" вопрос: понятно, что компании (нетфликс и дисней) готовили свои фильмы параллельно и независимо друг от друга, вроде как "по тихому", НО, тогда почему у обоих компаний Каа стал транссексуалом?

    9 months ago

    Да уж! Не хорошо получилось. Со звуком на некоторых устройствах будут проблемы... не воспроизведётся.

    9 months ago

    Странные какие-то волки получились, Акела так и вовсе на ту же гиену похож. Медведь тоже, более менее Каа получился - получилась и Багира.Прикольно когда Шерхан говорит голосом генерала Зода

    9 months ago

    Спасибо, но... На Samsung TV 7 серии не воспроизводится.

    9 months ago

    gadd у меня этот релиз телик перезагружает. перекодировал - думал поможет , фиг вам.колдунство какое-т ос этим релизом, магия.

    9 months ago

    Hydrochlor писал(а): 76495942у меня этот релиз телик перезагружает. ЧТО ЭТО ЗА РЕЛИЗ?! Что туда напичкали? У меня весь домашний кинотеатр перезагружаться без остановки!

    9 months ago

    Таки да, также заметил вопросы по воспроизведению контента. Собственно, только один вопрос: на Dune HD Base 3D отказался воспроизводиться. Плеер глаголет: "не поддерживаемый формат файла". Это только с моей Дюной так?

    9 months ago

    lopik444 Это еще ничего, у некоторых телевизоры даже перезагружает, в т.ч и даже по циклу

    9 months ago

    Недавно же вышел фильм Фавро "Книга Джунглей" - 2016 год. Какой смысл так скоро снимать еще один похожий фильм? Или же они не очень похожи? Ни один не видел, не мое, но, конечно, съемки впечатляют. А ведь снято на зеленом фоне в основном. Наверное, больше никак. Животных вообще сложно снимать, а уже говорящих и мыслящих, да еще и конкретно диких.

    9 months ago

    lopik444 писал(а): 76502746Таки да, также заметил вопросы по воспроизведению контента. Собственно, только один вопрос: на Dune HD Base 3D отказался воспроизводиться. Плеер глаголет: "не поддерживаемый формат файла". Это только с моей Дюной так? WD TV Live Media Player показывает только видео, без звука и русского и английского ... Телевизор Samsung ваще не показывает!

    9 months ago

    Пробовал на Samsung TV 6 series: с флешки и по сети с Plex С флешки просто с затыками. Через Plex номально пошло только в режиме 720p в высоком качестве. Но после 1080p растнутым на 4к, картинка так себе. Еще пробовал на OnePlus 6 - пытался понять в чем причина - вдруг мощи не хватает )) Там вообще ничего не завелось. Просто статичные картинки при прокрутке. Конвертить не пробовал.

    9 months ago

    Интересно когда "Рикки Тики Тави" снимут, если по Маугли довольно много экранизации и т.п. , то вот про мангуста явно меньше.

    9 months ago

    Попробовал тупо переконвертировать видео в такой же самый формат при помощи Avidemux 2.7. Задал кодирование в 2 прохода и размер видео 5 ГБ. Звук оставил без изменений.Итоговый фал потянул на 6 ГБ и стал воспроизводиться, но субтитры пропали как класс.Таки проблема в контейнере mkv? В субтитрах?

    9 months ago

    lopik444 у меня субтитры тоже не показывались, хотя в свойствах файла были видно.

    9 months ago

    У 99.9% со встроенными в телевизор плеерами, скорее всего это официальное-продолжение (версия) кодека не поддерживается. Wilmots писал(а): 76453705Format : E-AC-3 Доподлинно не известно, но некоторые железки начинают адово глючить увидев в файле больше ~11 встроенных субтитров. Усё решаемо Главное только - найти подход.

    9 months ago

    GwolaDoubleZiraAFK писал(а): 76509731Доподлинно не известно, но некоторые железки начинают адово глючить увидев в файле больше ~11 встроенных субтитров. Мой плеер с этим справляется, проблема скорее всего в видео, так как едва засунув флешку, не открывая сам файл, плеер начинает без остановки перезагружаться, вероятно пытаясь отображать иконку (содержимое) видео файла.

    9 months ago

    Скорее всего, в видео. После перекодировки видео моя дюна воспроизводить согласилась... Звук был оставлен без изменений.

    9 months ago

    del

    9 months ago

    Skotjara писал(а): 76503099Недавно же вышел фильм Фавро "Книга Джунглей" - 2016 год. Какой смысл так скоро снимать еще один похожий фильм? Или же они не очень похожи? Ни один не видел, не мое, но, конечно, съемки впечатляют. А ведь снято на зеленом фоне в основном. Наверное, больше никак. Животных вообще сложно снимать, а уже говорящих и мыслящих, да еще и конкретно диких. Так же было в 1999, когда вышли два мультфильма про Муравья - АнтZ и Bug's Life, и с двумя астероидами Армагеддон и еще что-то там, и двумя вулканами Пик Данте и другой фильм. Только этот Маугли, как и АнтZ, гораздо взрослее. Дебютный блокбастер Горлума и Цезаря из планеты Обезьян, Энди Серкиса, как режиссера, это не детский Дисней фильм 0+, он гораздо мощнее.

    9 months ago

    Samsung TV 6 серия - передёрнулся, без перезагрузки выкинул. На компе звука нет. Экзотические кодеки в раздачах наверное стоит указывать покрупнее.

    8 months ago

    Первый рип, который не прочитал Smart TV Samsung, - 2 секунды и вылетает. Один из единичных рипов, который нормально не воспроизвёл Smart TV Philips, картинка есть, в порядке, но звука нет.. Оба ТВ воспроизвели не одну сотню тяжелых рипов 1080p и больше десятка Ремуксов в m2ts и ts .На компе читается нормально, но всё равно пришлось безжалостно стереть это убогое поделие. ... // Пост отредактирован G00ba

    8 months ago

    Лучше посмотреть ещё раз наш советский мульт, чем эту пародию

    Files

    Mowgli.Legend.of.the.Jungle.2018.1080p.NF.WEB-DL.DDP5.1.x264-EniaHD.mkv 4.7 GB

    Stream

    Downloading Seeding Mowgli (2018) WEB-DL 1080p | Rus / Eng from to 0 peers.
    of
    0 b/s / ↗0 b/s