• 15
  • 1
  • done
Download
  • Motorhead - Overkill (1979) (PBTHAL LP 24-96) [FLAC] vtwin88cube
  • 793 MB
  • vtwin88cube
  • Motorhead Overkill 1979 PBTHAL FLAC vtwin88cube
  • Unknown/NA
  • FLAC

Description

Motörhead
Overkill (1979)
FLAC LOSSLESS 24bit-96kHz
UK PBTHAL Vinyl Rip


allmusic.com...

Motörhead's landmark second album, Overkill, marked a major leap forward for the band, and it remains one of their all-time best, without question. In fact, some fans consider it their single best, topping even Ace of Spaces. It's a ferocious album, for sure, perfectly showcasing Motörhead's trademark style of no holds barred proto-thrash -- a kind of punk-inflected heavy metal style that is sloppy and raw yet forceful and in your face. Motörhead, the band's self-titled debut from 1977, had been rush-recorded, and its stripped-down, super-raw sound wasn't all that impressive, at least not relative to what would follow. Overkill is what followed, recorded in December 1978 and January 1979, and released not long thereafter. The band's sound is fully formed here, and it totally explodes right off the bat on the five-minute title track. A number of Motörhead standards follow, among them "Stay Clean" and "No Class." Produced by Jimmy Miller, who had helmed a number of classic Rolling Stones albums (Beggars Banquet, Let It Bleed, Sticky Fingers, Exile on Main St., Goats Head Soup), Overkill sounds wonderful, especially on the numerous remastered editions of this album. The band's classic lineup -- Lemmy (bass and vocals), "Fast" Eddie Clarke (guitar), and "Philthy Animal" Taylor (drums) -- is well in place here, and they seem eager to rip loose wildly on every single song. This, in addition to the solid track listing and Miller's production, makes Overkill a perfect Motörhead album. Several great ones would follow, of course, but Overkill was the first of the great ones, and quite possibly the greatest of all.


foobar2000 1.4.3 / Dynamic Range Meter 1.1.1
log date: 2021-01-09 22:45:00

--------------------------------------------------------------------------------
Analyzed: Motörhead / Overkill
--------------------------------------------------------------------------------

DR Peak RMS Duration Track
--------------------------------------------------------------------------------
DR11 -2.59 dB -15.32 dB 5:12 01-Overkill
DR11 -1.86 dB -14.65 dB 2:41 02-Stay Clean
DR12 -1.86 dB -15.59 dB 2:57 03-(I Won't) Pay Your Price
DR13 -0.82 dB -15.20 dB 2:57 04-I'll Be Your Sister
DR11 -3.54 dB -15.88 dB 4:12 05-Capricorn
DR11 -0.70 dB -13.80 dB 2:40 06-No Class
DR13 -0.96 dB -15.14 dB 3:03 07-Damage Case
DR11 -1.39 dB -14.71 dB 2:39 08-Tear Ya Down
DR11 -1.62 dB -15.06 dB 3:35 09-Metropolis
DR11 -2.06 dB -14.07 dB 4:55 10-Limb From Limb

Number of tracks: 10
Official DR value: DR11

Samplerate: 96000 Hz
Channels: 2
Bits per sample: 24
Bitrate: 3228 kbps
Codec: FLAC





Support the artists...
buy it if you like it!

Thanks for Seeding!
Cheers! ;)


More at ibit.to
And ibit.uno
And ibit.am
And ibit.ws

Comments

Files

Motorhead - Overkill (1979) (PBTHAL LP 24-96) [FLAC] vtwin88cube -
00.-Motörhead - Overkill.m3u 235 B
01.-Overkill.flac 125 MB
02.-Stay Clean.flac 61 MB
03.-(I Won't) Pay Your Price.flac 67 MB
04.-I'll Be Your Sister.flac 67 MB
05.-Capricorn.flac 88 MB
06.-No Class.flac 61 MB
07.-Damage Case.flac 72 MB
08.-Tear Ya Down.flac 59 MB
09.-Metropolis.flac 80 MB
10.-Limb From Limb.flac 114 MB
DR11.txt 1.3 kB
folder.jpg 229 kB
lineage.txt 407 B

Stream

Downloading Seeding Motorhead - Overkill (1979) (PBTHAL LP 24-96) [FLAC] vtwin88cube from to 0 peers.
of
0 b/s / ↗0 b/s