• 0
  • 0
  • done
Sponsored Downloadondemand_video
  • Money for Nothing Inside the Federal Reserve_HD.ts
  • 3.0 GB
  • semenonn
  • Money Inside Federal Reserve
  • Документальные (HD Video)

Description

Деньги за бесценок / Money for Nothing: Inside the Federal Reserve

image

Год выпуска : 2013

Страна : США

Студия : Liberty Street Films

Жанр : Документалистика

Продолжительность : 00:55:00

Перевод : Профессиональный (многоголосый закадровый)

Доп. инфо о переводе : Кравец рекордс

Русские субтитры : есть

Режиссер : Джим Брюс / Jim Bruce

Описание : Рынки и правительства всего мира, затаив дыхание, следят за тем, что происходит с Федеральной резервной системой США. Как решения высокопоставленных чиновников отражаются на простых гражданах? Почему произошел кризис 2008 года? Как скоро финансовая катастрофа повторится? Ответы на эти вопросы дают экономисты и финансисты, сотрудники ФРС, знающие, как устроена эта система изнутри.

Сэмпл : http://multi-up.com/1014443

Тип релиза : HDTV 1080i

Контейнер : TS

Видео : AVC, 1920х1080, 16:9, 6676 Кбит/сек, 25 fps

Аудио : (русский) MPEG Audio, 192 Кбит/сек, 48 КГц, 2 канала

Аудио 2 : (английский) MPEG Audio, 192 Кбит/сек, 48 КГц, 2 канала

Формат субтитров :Teletext Sub Page 888

MediaInfo

`Общее
Идентификатор : 16 (0x10)
Полное имя : Money for Nothing Inside the Federal Reserve_HD.ts
Формат : MPEG-TS
Размер файла : 3,04 Гбайт
Продолжительность : 55 м.
Режим общего битрейта : Переменный
Общий поток : 7839 Кбит/сек

Видео
Идентификатор : 1812 (0x714)
Идентификатор меню : 812 (0x32C)
Формат : AVC
Формат/Информация : Advanced Video Codec
Профиль формата : High@L4.0
Параметр CABAC формата : Да
Параметр ReFrames формата : 4 кадра
Идентификатор кодека : 27
Продолжительность : 55 м.
Битрейт : 6676 Кбит/сек
Ширина : 1920 пикселей
Высота : 1080 пикселей
Соотношение сторон : 16:9
Частота кадров : 25,000 кадров/сек
Стандарт вещания : PAL
Цветовое пространство : YUV
Субдискретизация насыщенности : 4:2:0
Битовая глубина : 8 бит
Тип развёртки : MBAFF
Бит/(Пиксели*Кадры) : 0.129
Размер потока : 2,59 Гбайт (85%)
Основные цвета : BT.709
Характеристики трансфера : BT.709
Коэффициенты матрицы : BT.709

Аудио #1
Идентификатор : 2812 (0xAFC)
Идентификатор меню : 812 (0x32C)
Формат : MPEG Audio
Версия формата : Version 1
Профиль формата : Layer 2
Идентификатор кодека : 4
Продолжительность : 55 м.
Вид битрейта : Постоянный
Битрейт : 192 Кбит/сек
Каналы : 2 канала
Частота : 48,0 КГц
Метод сжатия : С потерями
Задержка видео : 42 мс.
Размер потока : 76,3 Мбайт (2%)
Язык : std
Язык, дополнительно : Clean effects

Аудио #2
Идентификатор : 3812 (0xEE4)
Идентификатор меню : 812 (0x32C)
Формат : MPEG Audio
Версия формата : Version 1
Профиль формата : Layer 2
Идентификатор кодека : 4
Продолжительность : 55 м.
Вид битрейта : Постоянный
Битрейт : 192 Кбит/сек
Каналы : 2 канала
Частота : 48,0 КГц
Метод сжатия : С потерями
Задержка видео : 42 мс.
Размер потока : 76,3 Мбайт (2%)
Язык : English
Язык, дополнительно : Clean effects

Текст
Идентификатор : 63 (0x3F)-100
Идентификатор меню : 812 (0x32C)
Формат : Teletext

Меню
Идентификатор : 812 (0x32C)
Идентификатор меню : 812 (0x32C)
Продолжительность : 55 м.
Список : 1812 (0x714) (AVC) / 2812 (0xAFC) (MPEG Audio, std) / 3812 (0xEE4) (MPEG Audio, English) / 4812 (0x12CC) (AC-3, std) / 63 (0x3F) ()
Язык : / std / English / std `

Скриншоты

image image image


More at ibit.to
And ibit.uno
And ibit.ws

Comments

Files

Money for Nothing Inside the Federal Reserve_HD.ts 3.0 GB

Stream

Downloading Seeding Money for Nothing Inside the Federal Reserve_HD.ts from to 0 peers.
of
0 b/s / ↗0 b/s