• 6
  • 1
  • done
Sponsored Downloadondemand_video
60%

Modern Family: Did the Chicken Cross the Road?(2018)

  • 10 7
  • Comedy
  • When Cam forgets the words to his favorite country song, he blames Mitch and decides he needs to reconnect with his roots and get a chicken. When Alex is up for a prestigious government job that requires a family interview, it causes everyone to overcompensate and jeopardize her chances. Haley and Dylan think it might be time they grew up a little.

    expand_more
    English

    Description

    image

    imageimage

    imageimage

    ** Media Information **

    General

    Format                                   : Matroska

    Format version                           : Version 4 / Version 2

    File size                                : 603 MiB

    Duration                                 : 21 min 33 s

    Overall bit rate                         : 3 907 kb/s

    Encoded date                             : UTC 2018-11-12 15:47:51

    Writing application                      : mkvmerge v27.0.0 ('Metropolis') 64-bit

    Writing library                          : libebml v1.3.6 + libmatroska v1.4.9

    Video

    ID                                       : 1

    Format                                   : HEVC

    Format/Info                              : High Efficiency Video Coding

    Format profile                           : Main [email protected]@Main

    Codec ID                                 : V_MPEGH/ISO/HEVC

    Duration                                 : 21 min 33 s

    Bit rate                                 : 3 265 kb/s

    Width                                    : 1 920 pixels

    Height                                   : 1 080 pixels

    Display aspect ratio                     : 16:9

    Frame rate mode                          : Constant

    Frame rate                               : 23.976 (24000/1001) FPS

    Color space                              : YUV

    Chroma subsampling                       : 4:2:0

    Bit depth                                : 10 bits

    Bits/(Pixel*Frame)                       : 0.066

    Stream size                              : 504 MiB (84%)

    Writing library                          : x265 2.9+4-471726d3a046:[Windows][MSVC 1915][64 bit] 10bit

    Encoding settings                        : cpuid=1111039 / frame-threads=4 / numa-pools=16 / wpp / no-pmode / no-pme / no-psnr / no-ssim / log-level=2 / input-csp=1 / input-res=1920x1080 / interlace=0 / total-frames=31015 / level-idc=0 / high-tier=1 / uhd-bd=0 / ref=4 / no-allow-non-conformance / no-repeat-headers / annexb / no-aud / no-hrd / info / hash=0 / no-temporal-layers / open-gop / min-keyint=23 / keyint=250 / gop-lookahead=0 / bframes=8 / b-adapt=2 / b-pyramid / bframe-bias=0 / rc-lookahead=50 / lookahead-slices=4 / scenecut=40 / radl=0 / no-intra-refresh / ctu=64 / min-cu-size=8 / no-rect / no-amp / max-tu-size=32 / tu-inter-depth=1 / tu-intra-depth=1 / limit-tu=0 / rdoq-level=2 / dynamic-rd=0.00 / no-ssim-rd / signhide / no-tskip / nr-intra=0 / nr-inter=0 / no-constrained-intra / no-strong-intra-smoothing / max-merge=3 / limit-refs=3 / limit-modes / me=3 / subme=3 / merange=57 / temporal-mvp / weightp / no-weightb / no-analyze-src-pics / deblock=1:1 / no-sao / no-sao-non-deblock / rd=4 / no-early-skip / no-rskip / no-fast-intra / no-tskip-fast / no-cu-lossless / no-b-intra / no-splitrd-skip / rdpenalty=0 / psy-rd=1.40 / psy-rdoq=1.00 / no-rd-refine / no-lossless / cbqpoffs=0 / crqpoffs=0 / rc=crf / crf=21.0 / qcomp=0.60 / qpstep=4 / stats-write=0 / stats-read=0 / ipratio=1.40 / pbratio=1.30 / aq-mode=2 / aq-strength=1.00 / cutree / zone-count=0 / no-strict-cbr / qg-size=32 / no-rc-grain / qpmax=69 / qpmin=0 / no-const-vbv / sar=0 / overscan=0 / videoformat=5 / range=0 / colorprim=2 / transfer=2 / colormatrix=2 / chromaloc=0 / display-window=0 / max-cll=0,0 / min-luma=0 / max-luma=1023 / log2-max-poc-lsb=8 / vui-timing-info / vui-hrd-info / slices=1 / no-opt-qp-pps / no-opt-ref-list-length-pps / no-multi-pass-opt-rps / scenecut-bias=0.05 / no-opt-cu-delta-qp / no-aq-motion / no-hdr / no-hdr-opt / no-dhdr10-opt / no-idr-recovery-sei / analysis-reuse-level=5 / scale-factor=0 / refine-intra=0 / refine-inter=0 / refine-mv=0 / no-limit-sao / ctu-info=0 / no-lowpass-dct / refine-mv-type=0 / copy-pic=1 / max-ausize-factor=1.0 / no-dynamic-refine / no-single-sei

    Language                                 : English

    Default                                  : Yes

    Forced                                   : No

    Audio

    ID                                       : 2

    Format                                   : E-AC-3

    Format/Info                              : Enhanced Audio Coding 3

    Format settings, Endianness              : Big

    Codec ID                                 : A_EAC3

    Duration                                 : 21 min 33 s

    Bit rate mode                            : Constant

    Bit rate                                 : 640 kb/s

    Channel(s)                               : 6 channels

    Channel positions                        : Front: L C R, Side: L R, LFE

    Sampling rate                            : 48.0 kHz

    Frame rate                               : 187.500 FPS (256 spf)

    Compression mode                         : Lossy

    Stream size                              : 98.7 MiB (16%)

    Language                                 : English

    Default                                  : Yes

    Forced                                   : No

    Subtitle

    ID                                       : 3

    Format                                   : UTF-8

    Codec ID                                 : S_TEXT/UTF8

    Codec ID/Info                            : UTF-8 Plain Text

    Duration                                 : 21 min 30 s

    Bit rate                                 : 125 b/s

    Count of elements                        : 567

    Stream size                              : 19.8 KiB (0%)

    Language                                 : English

    Default                                  : Yes

    Forced                                   : No

    ** Source Information **

    Release: Unknown Source/NO-GROUP

    image

    UTR wrote:

    Note From UTR

    We have no issue with individuals posting or re-uploading our torrents on a platform we aren't on. However, if this is something you'd like to do, please do so in a 'as-is' format. We ask that you do not create a new torrent, include all descriptions you see above including the UTR logo, tags, notes and screenshots. If you'd like to become a permanent poster on a website we don't post to, feel free to get in contact with a UniTeam member.

    If possible please donate: BTC 1QA5fum5AyXvWzdVCkQzUNvw3Ef15fHRaR


    More at ibit.to
    And ibit.uno
    And ibit.ws

    Reviews

    Comments

    Files

    Modern.Family.S10E07.1080p.AMZN.WEB-DL.x265.10bit.EAC3.6.0-Qman[UTR].mkv 603 MB
    Modern Family S10E07 (1080p AMZN WEBDL x265 HEVC 10bit AC3 5.1 Qman) [UTR] -
    Modern.Family.S10E07.1080p.AMZN.WEBDL.x265.10bit.EAC3.6.0-Qman[UTR].mkv 603 MB

    Stream

    Downloading Seeding Modern Family S10E07 (1080p AMZN WEB-DL x265 HEVC 10bit AC3 5.1 Qman) [UTR] from to 0 peers.
    of
    0 b/s / ↗0 b/s