• 9
  • 0
  • 557
Sponsored Downloadondemand_video
  • Moana 2016 DVDScr XVID AC3 HQ Hive-CM8
  • 1.5 GB
  • mangoboy
  • Moana 2016 DVDScr XVID Hive AC3 CM8
  • English
  • Movies
75%

Moana (2016)

  • Adventure Comedy Family Animation
  • In Ancient Polynesia, when a terrible curse incurred by Maui reaches an impetuous Chieftain's daughter's island, she answers the Ocean's call to seek out the demigod to set things right.

    expand_more
    English
  • $150,000,000
  • Description

    image

    Moana.2016.DVDScr.XVID.AC3.HQ.Hive-CM8

    Thx Hive

    CM8 Doing It Right The First Time

    Source: Screener Thanks m8

    Notes:

    Another Qualityrelease, one for all the kids out theire!

    Encode:

    Quality was very nice, fixed rgb and brightness

    removed all watermarks from video and audio, safety first.

    enjoy

    Video: 720x336 @bitrate 1700 2pass

    Audio: English AC3 Stereo

    Sample: yes included

    PS: rules dont apply,20th woman,paterson anyone?

       

    http://www.imdb.com/title/tt3521164/

    General

    Complete name                  : Moana.2016.DVDScr.XVID.AC3.HQ.Hive-CM8.avi

    Format                         : AVI

    Format/Info                    : Audio Video Interleave

    File size                      : 1.47 GiB

    Duration                       : 1h 46mn

    Overall bit rate               : 1 964 Kbps

    Writing application            : Nandub v1.0rc2

    Writing library                : Nandub build 1853/release

    Video

    ID                             : 0

    Format                         : MPEG-4 Visual

    Format profile                 : Advanced [email protected]
    Format settings, BVOP          : 2

    Format settings, QPel          : Yes

    Format settings, GMC           : No warppoints

    Format settings, Matrix        : Default (H.263)

    Muxing mode                    : Packed bitstream

    Codec ID                       : XVID

    Codec ID/Hint                  : XviD

    Duration                       : 1h 46mn

    Bit rate                       : 1 697 Kbps

    Width                          : 720 pixels

    Height                         : 336 pixels

    Display aspect ratio           : 2.143

    Frame rate                     : 29.970 fps

    Color space                    : YUV

    Chroma subsampling             : 4:2:0

    Bit depth                      : 8 bits

    Scan type                      : Progressive

    Compression mode               : Lossy

    Bits/(Pixel*Frame)             : 0.234

    Stream size                    : 1.27 GiB (86%)

    Writing library                : XviD 1.2.1 (UTC 2008-12-04)

    Audio

    ID                             : 1

    Format                         : AC-3

    Format/Info                    : Audio Coding 3

    Mode extension                 : CM (complete main)

    Format settings, Endianness    : Big

    Codec ID                       : 2000

    Duration                       : 1h 46mn

    Bit rate mode                  : Constant

    Bit rate                       : 256 Kbps

    Channel(s)                     : 2 channels

    Channel positions              : Front: L R

    Sampling rate                  : 48.0 KHz

    Bit depth                      : 16 bits

    Compression mode               : Lossy

    Stream size                    : 196 MiB (13%)

    Alignment                      : Split accross interleaves

    Interleave, duration           : 33 ms (1.00 video frame)

    Interleave, preload duration   : 500 ms

    image
    image
    image
    image


    More at ibit.to
    And ibit.uno
    And ibit.ws

    Reviews

    **Girl finds out the true identity of her people.** Okay, I shocked when I heard this film did not get the Oscars nod, except for a song. Now I have seen the film and I come to know why. This is a one liner, but developed into a longer version Except the initial parts, this film is like a limited cast/character film. Most of the film takes place in the sea sailing around fighting evil force to break the curse. But at the end, you would feel this kind of story is not worth for a feature film. It looks a perfect short animation theme. Disney never disappoints its fans, well, for me. So I enjoyed it, it was fun and entertaining, but too simple. The characters were cute, this is a wonderful film for kids and some grownups would too enjoy it. But this is not for all, unlike most of the Disney animations are. Dwayne's voice lending for one of the lead characters was good, but the girl steals the show. Especially if you are a kid and/or a girl. The best film since 'Lilo & Stitch' on the similar theme about Pacific islands' people. But it reminded me 'Whale Rider'. Overall, I think the story should have been improved a bit, in particular by including a few more characters at least for the partial appearances. This is not the best animation of the year, also definitely the bad one to skip. If your purpose of the watch is entertainment/timepass, it is good at that. _6½/10_

    After I watched _Zootopia_ in the middle of 2016, I thought to myself "Well, that does it, this has to be the best Family Movie of the year!" I was ready to call it right then and there. It wasn't until December rolled around and I got the chance to see _Moana_, that I realised I had spoken far too soon. For in truth Moana deserved that title! Mostly I'm just happy that I managed to enjoy two whole Disney movies this year. _Final rating:★★★½ - I strongly recommend you make the time._

    Comments

    Files

    Moana.2016.DVDScr.XVID.AC3.HQ.Hive-CM8/Moana.2016.DVDScr.XVID.AC3.HQ.Hive-CM8.avi 1.5 GB
    Moana.2016.DVDScr.XVID.AC3.HQ.Hive-CM8/Moana.2016.DVDScr.XVID.AC3.HQ.Hive-CM8.nfo 3.9 kB
    Moana.2016.DVDScr.XVID.AC3.HQ.Hive-CM8/sample.avi 15 MB

    Stream

    Downloading Seeding Moana 2016 DVDScr XVID AC3 HQ Hive-CM8 from to 0 peers.
    of
    0 b/s / ↗0 b/s