• 0
  • 0
Anonymous Downloadondemand_video
  • Mistress.America.2015.BRRip.XviD.AC3-RARBG
  • 1.2 GB
  • Mistress America 2015 BRRip XviD RARBG
  • English
  • XVID
Warning! Use a VPN When Downloading Torrents!
Your IP Address is ,
Your Internet Provider can see when you download torrents! Hide your IP ADDRESS with a VPN
We strongly recommend Trust.Zone VPN to hide your torrenting. It's FREE!
DOWNLOAD VPN
65%

Mistress America (2015)

  • Comedy
  • Tracy, a lonely college freshman in New York, is rescued from her solitude by her soon-to-be stepsister Brooke, an adventurous gal about town who entangles her in alluringly mad schemes.

    expand_more
    English

    Description

    Tracy| a lonely college freshman in New York| is rescued from her solitude by her soon-to-be stepsister Brooke| an adventurous gal about town who entangles her inalluringly mad schemes. Mistress America is a comedy about dream-chasing| score-settling| makeshift families| and cat-stealing.

    http://imdb.com/title/tt2872462/

    http://www.imdb.com/title/tt2872462/

    image

    image

    image

    image

    image

    MediaInfo:

    Video

    ID                                       : 0

    Format                                   : MPEG-4 Visual

    Format profile                           : [email protected]

    Format settings, BVOP                    : No

    Format settings, QPel                    : No

    Format settings, GMC                     : No warppoints

    Format settings, Matrix                  : Default (H.263)

    Codec ID                                 : XVID

    Codec ID/Hint                            : XviD

    Duration                                 : 1h 24mn

    Bit rate                                 : 1 599 Kbps

    Width                                    : 720 pixels

    Height                                   : 388 pixels

    Display aspect ratio                     : 1.85:1

    Frame rate                               : 23.976 fps

    Color space                              : YUV

    Chroma subsampling                       : 4:2:0

    Bit depth                                : 8 bits

    Scan type                                : Progressive

    Compression mode                         : Lossy

    Bits/(Pixel*Frame)                       : 0.239

    Stream size                              : 964 MiB (78%)

    Writing library                          : Lavc56.60.100

    Audio

    ID                                       : 1

    Format                                   : AC-3

    Format/Info                              : Audio Coding 3

    Mode extension                           : CM (complete main)

    Format settings, Endianness              : Big

    Codec ID                                 : 2000

    Duration                                 : 1h 24mn

    Bit rate mode                            : Constant

    Bit rate                                 : 448 Kbps

    Channel(s)                               : 6 channels

    Channel positions                        : Front: L C R, Side: L R, LFE

    Sampling rate                            : 48.0 KHz

    Compression mode                         : Lossy

    Stream size                              : 270 MiB (22%)

    Alignment                                : Aligned on interleaves

    Interleave, duration                     : 42 ms (1.00 video frame)

    Interleave, preload duration             : 512 ms


    More at ibit.to
    And ibit.uno
    And ibit.ws

    Reviews

    Mistress America is a good depict of that character which is like a bonfire (using the same words Tracy use at the end of the picture), which attracts insects with its light only to be burnt and which brights strong to be completely consumed. Only paying attention to itself and putting all the world in accordance to its needs. The script is brilliant and the cast is well chosen and performs well. However, this story around this character and around the starting of adulthood and chasing of dreams is not really appealing to me. Somehow boring ...

    > A sudden sparkling change in a moody life. The second collaboration between the director and Greta Gerwig. I just love their works, together they write awesome story and create a cinematic magic. Kind of rare filmmakers, only a very few from the past to compare these two to them. It was another quirky comedy, especially if you liked 'Frances Ha' you would like this as well. I hope they would come for the third time to complete 'An Untalented Girl from NYC' trilogy. It was not as good as the previous film, but nothing short of awesome entertainment. I am surprised a few of those who liked that movie did not favour it. I knew it would be a chick comedy, accordingly, I was not expecting beyond that. But like all the time when I decide to watch a movie, I wanted it to be a better entertainer than the one I saw in the earlier. That's what everyone do, it was like the sea tides, the rise and fall is inevitable. Some would like it and some won't, but to me it was a very good. Unlike 'Frances Ha', here there are two lead characters, both are young adult women, but the entire narration was from one person's perspective. That is, a college freshman Tracy. How her life follows, especially after meeting a girl who's soon-to-be her step-sister. As in a new place and socially inept, she finds her way to be joyous and adventurous, meets some new people and makes them friends. But how long this unplanned pleasure remains with her and what are all changes makes to her rest of the life is the remaining movie. > "I am so impressed by you and so worried for you at the same time." It was a simple and soft narration, but engaging characters and well paced with a chain of fine comedies. Apart from writing and direction, the supporting cast was the best feature. It was a tiny twist at the end, but extremely essential to break the steady sequence to bring a diversion. Since that part, I have been wondering about the conclusion, but the makeover was really excellent, I think it was touching yet as I expected. This is Lola Kirke's major role I've seen. She was fantastic and I hope to see her in more films in the lead. It was one of the best on-screen chemistry between her and Greta. There were many beautiful lines spoken between these two, very memorable and quotable ones. With all these top quality, if one still don't like, then he must be bored of watching plenty of similar themes. But that should not be a reason to trash it, because that is his personal issue to deal who's dumping on this one is totally unfair. This movie was unique, fun, touching, heartbreaking, likeable characters, filled with cheerful moments and overall one of the best recent films I have seen. It was more like a friendship movie on trust and commitment. The portrayal was at its best, an example of how a life can turn around in a matter of time. But how much more trustworthy is this sudden change and the best uses of it was the movie that told very nicely. I won't say it is a must see, but personally I feel that way. 8/10

    Comments

    Files

    Mistress.America.2015.BRRip.XviD.AC3-RARBG.avi 1.2 GB
    Mistress.America.2015.BRRip.XviD.AC3-RARBG.nfo 2.9 kB
    RARBG.COM.avi 1.1 MB
    RARBG.COM.txt 30 B
    Subs/Mistress.America.2015.BRRip.XviD.AC3-RARBG.idx 232 kB
    Subs/Mistress.America.2015.BRRip.XviD.AC3-RARBG.sub 22 MB
    Subs/Sdh-SDH.srt 139 kB
    Subs/Sdh.srt 135 kB

    Stream

    Downloading Seeding Mistress.America.2015.BRRip.XviD.AC3-RARBG from to 0 peers.
    of
    0 b/s / ↗0 b/s