• 1
  • 1
  • done

Description

Mirijam Contzen, WDR Sinfonieorchester Reinhard Goebel / Beethoven's World - Clement - Violin Concertos Nos. 1 & 2

image

Формат записи/Источник записи : [TR24][OF]

Наличие водяных знаков : Нет

Год издания/переиздания диска : 2020

Жанр : Classical

Издатель (лейбл) : Sony

Продолжительность : 01:11:27

Наличие сканов в содержимом раздачи : Буклет PDF

Треклист :

Clement, Franz (1780-1842) :

Violin Concerto No. 1 in D Major

37:23
01. I. Allegro maestoso 15:22
02. II. Adagio 10:41
03. III. Rondo. Allegro 11:20

Violin Concerto No. 2 in D Minor

33:57
04. I. Moderato 20:16
05. II. Adagio 7:25
06. III. Rondo. Allegro 6:16


Mirijam Contzen (violin)
WDR Sinfonieorchester
Reinhard Goebel


Контейнер : FLAC (*.flac)

Тип рипа : tracks

Разрядность : 24/48

Формат : PCM

Количество каналов : 2.0

Лог проверки качества

`foobar2000 1.5.1 / Dynamic Range Meter 1.1.1
log date: 2020-02-14 11:35:47


Analyzed: Reinhard Goebel / Beethoven's World - Clement: Violin Concertos Nos. 1 & 2
DR Peak RMS Duration Track

DR15 -0.72 dB -22.29 dB 15:22 01-Violin Concerto No. 1 in D Major: I. Allegro maestoso
DR12 -7.17 dB -25.58 dB 10:42 02-Violin Concerto No. 1 in D Major: II. Adagio
DR14 -0.45 dB -21.90 dB 11:28 03-Violin Concerto No. 1 in D Major: III. Rondo. Allegro
DR16 -0.45 dB -23.23 dB 20:17 04-Violin Concerto No. 2 in D Minor: I. Moderato
DR13 -6.13 dB -27.10 dB 7:25 05-Violin Concerto No. 2 in D Minor: II. Adagio

DR13 -0.51 dB -21.42 dB 6:17 06-Violin Concerto No. 2 in D Minor: III. Rondo. Allegro

Number of tracks: 6
Official DR value: DR14

Samplerate: 48000 Hz
Channels: 2
Bits per sample: 24
Bitrate: 1425 kbps
Codec: FLAC
================================================================================ `

Источник (релизер) : PrestoClassical


More at ibit.to
And ibit.uno
And ibit.am
And ibit.ws

Comments

Files

Mirijam Contzen, Reinhard Goebel - Beethoven's World - Clement - Violin Concertos Nos. 1 & 2 (2020) [24-48]04. Violin Concerto No. 2 in D Minor I. Mod 205 MB
Mirijam Contzen, Reinhard Goebel - Beethoven's World - Clement - Violin Concertos Nos. 1 & 2 (2020) [24-48]02. Violin Concerto No. 1 in D Major II. Ad 112 MB
Mirijam Contzen, Reinhard Goebel - Beethoven's World - Clement - Violin Concertos Nos. 1 & 2 (2020) [24-48]03. Violin Concerto No. 1 in D Major III. R 123 MB
Mirijam Contzen, Reinhard Goebel - Beethoven's World - Clement - Violin Concertos Nos. 1 & 2 (2020) [24-48]01. Violin Concerto No. 1 in D Major I. All 166 MB
Mirijam Contzen, Reinhard Goebel - Beethoven's World - Clement - Violin Concertos Nos. 1 & 2 (2020) [24-48]05. Violin Concerto No. 2 in D Minor II. Ad 74 MB
Mirijam Contzen, Reinhard Goebel - Beethoven's World - Clement - Violin Concertos Nos. 1 & 2 (2020) [24-48]06. Violin Concerto No. 2 in D Minor III. R 67 MB
Mirijam Contzen, Reinhard Goebel - Beethoven's World - Clement - Violin Concertos Nos. 1 & 2 (2020) [24-48]Booklet.pdf 3.5 MB
Mirijam Contzen, Reinhard Goebel - Beethoven's World - Clement - Violin Concertos Nos. 1 & 2 (2020) [24-48]Cover.jpg 469 kB
Mirijam Contzen, Reinhard Goebel - Beethoven's World - Clement - Violin Concertos Nos. 1 & 2 (2020) [24-48]foo_dr.txt 1.4 kB

Stream

Downloading Seeding Mirijam Contzen, Reinhard Goebel - Beethoven's World - Clement - Violin Concertos Nos. 1 & 2 (2020) [24-48] from to 0 peers.
of
0 b/s / ↗0 b/s