• 15
  • 13
  • done
Downloadondemand_video
47%

Midnight in the Switchgrass (2021)

  • Crime Thriller Action Mystery
  • FBI Agent Helter and his partner Lombardi are very close to busting a sex-trafficking ring. When they realize their investigation has crossed the path of a brutal serial killer, they team up with a Texas Ranger to put an end to the infamous 'Truck Stop Killer'.

    expand_more
    English
  • $15,000,000
  • Description

    image

    https://www.imdb.com/title/tt11656220

    image

    image

    image

    image

    Video

    ID                                       : 1

    Format                                   : AVC

    Format/Info                              : Advanced Video Codec

    Format profile                           : [email protected]

    Format settings                          : CABAC / 4 Ref Frames

    Format settings, CABAC                   : Yes

    Format settings, Reference frames        : 4 frames

    Codec ID                                 : V_MPEG4/ISO/AVC

    Duration                                 : 1 h 40 min

    Bit rate                                 : 1 918 kb/s

    Width                                    : 1 280 pixels

    Height                                   : 536 pixels

    Display aspect ratio                     : 2.40:1

    Frame rate mode                          : Constant

    Frame rate                               : 23.976 (24000/1001) FPS

    Standard                                 : NTSC

    Color space                              : YUV

    Chroma subsampling                       : 4:2:0

    Bit depth                                : 8 bits

    Scan type                                : Progressive

    Bits/(Pixel*Frame)                       : 0.117

    Stream size                              : 1.34 GiB (91%)

    Language                                 : English

    Default                                  : Yes

    Forced                                   : No

    Color range                              : Limited

    Color primaries                          : BT.601 NTSC

    Transfer characteristics                 : BT.601

    Matrix coefficients                      : BT.601

    Audio

    ID                                       : 2

    Format                                   : AAC LC

    Format/Info                              : Advanced Audio Codec Low Complexity

    Codec ID                                 : A_AAC-2

    Duration                                 : 1 h 40 min

    Bit rate                                 : 192 kb/s

    Channel(s)                               : 2 channels

    Channel layout                           : L R

    Sampling rate                            : 48.0 kHz

    Frame rate                               : 46.875 FPS (1024 SPF)

    Compression mode                         : Lossy

    Stream size                              : 136 MiB (9%)

    Language                                 : Hindi

    Default                                  : Yes

    Forced                                   : No


    More at ibit.to
    And ibit.uno
    And ibit.am
    And ibit.ws

    Reviews

    Generally I love crime-thrillers (both fiction and non-fiction) and this had some good elements, but the editing was shoddy, performances uneven with Bruce Willis once again phoning it in. He has maybe 10-minutes of a screentime and is a non-factor with the plot outside of being Megan Fox's partner who disappears only to briefly show up at the end. As for Fox she at least was okay, though not entirely believable as an FBI agent and Emile Hirsch and his southern accent sounded off, not entirely sure why he had it, didn't really play into his character nor the region. Lukas Haas as the serial killer has his moments though his performance and the character isn't anything different than what had been done on Criminal Minds. Wanted to really like this but never quite works. Has an ending that should've been filled with suspense but instead was awkwardly edited and just was lackluster. **2.25/5**

    I know by now that Bruce on the cover probably means a whole lot of driveling banter piss caught on tape in feature length. But the premise and Emile Hirsch co-starring caught my interest. Turns out Emile is the lead really, Megan Fox the damsel in distress and the guy responsible for the editing is the real villain. The dialogue was boring, the story done better many times already, so the director could have learned something beforehand easily when taking this on. Unfortunately for the crime flick fan this is sub-par. And for everybody else it's just cringe-worthy bad.

    Comments

    Files

    Midnight in the Switchgrass (2021) [Hindi Dub] 720p BDRip Saicord.mkv 1.5 GB

    Stream

    Downloading Seeding Midnight in the Switchgrass (2021) [Hindi Dub] 720p BDRip Saicord.mkv from to 0 peers.
    of
    0 b/s / ↗0 b/s