• 1
  • 0
  • 28
Sponsored Downloadondemand_video
10%

Midnight, Texas: The Virgin Sacrifice(2017)

  • 1 10
  • Drama Mystery Sci-Fi & Fantasy
  • With Hell literally about to erupt onto Witch Light Road, and Fiji about to be claimed by the Demon who has been tormenting her, Manfred leads the Midnighters to take back their home from the evil forces that occupy it. As Bobo turns his attention to saving Fiji, Olivia and Creek confront the wraiths. Manfred focuses on killing the demon and closing the veil with the help of Lem, Joe, and the Rev. Manfred takes a desperate gamble and risks his life by asking for help from an unlikely source.

    expand_more
    English

    Description

    x265 Size, x264 Compatibility, HD Quality

    http://www.imdb.com/title/tt6365096/?ref=ttepep10

    With Hell literally about to erupt, Manfred leads the Midnighters to take back their home.

    Source: TBS (1.24 GiB)

    image

    image
    image
    image
    image
    image
    image

    Format : MPEG-4

    Format profile : Base Media / Version 2

    Codec ID : mp42 (isom/iso2/avc1/mp41)

    File size : 520 MiB

    Duration : 42 min 35 s

    Overall bit rate mode : Variable

    Overall bit rate : 1 706 kb/s

    Writing application : HandBrake 1.0.7 2017040900

    Video

    ID : 1

    Format : AVC

    Format/Info : Advanced Video Codec

    Format profile : [email protected]
    Format settings, CABAC : Yes

    Format settings, ReFrames : 8 frames

    Codec ID : avc1

    Codec ID/Info : Advanced Video Coding

    Duration : 42 min 35 s

    Bit rate : 1 541 kb/s

    Width : 1 920 pixels

    Height : 1 080 pixels

    Display aspect ratio : 16:9

    Frame rate mode : Constant

    Frame rate : 23.810 FPS

    Color space : YUV

    Chroma subsampling : 4:2:0

    Bit depth : 8 bits

    Scan type : Progressive

    Bits/(Pixel*Frame) : 0.031

    Stream size : 469 MiB (90%)

    Writing library : x264 core 148 r2708 86b7198

    Color range : Limited

    Color primaries : BT.709

    Transfer characteristics : BT.709

    Matrix coefficients : BT.709

    Audio

    ID : 2

    Format : AAC

    Format/Info : Advanced Audio Codec

    Format profile : LC

    Codec ID : 40

    Duration : 42 min 35 s

    Bit rate mode : Variable

    Bit rate : 159 kb/s

    Channel(s) : 2 channels

    Channel positions : Front: L R

    Sampling rate : 44.1 kHz

    Frame rate : 43.066 FPS (1024 spf)

    Compression mode : Lossy

    Stream size : 48.4 MiB (9%)

    Title : Stereo / Stereo

    Default : Yes

    Alternate group : 1


    More at ibit.to
    And ibit.uno
    And ibit.ws

    Reviews

    Comments

    Files

    Midnight Texas S01E10 The Virgin Sacrifice 1080p x264 Phun Psyz.mp4 520 MB

    Stream

    Downloading Seeding Midnight Texas S01E10 The Virgin Sacrifice 1080p x264 Phun Psyz from to 0 peers.
    of
    0 b/s / ↗0 b/s