• 1
  • 0
  • 3
Sponsored Downloadondemand_video
  • Metro Manila 2013 BRRip XviD MP3-RARBG
  • 1.0 GB
  • Metro Manila 2013 BRRip XviD RARBG
  • Tagalog
  • XVID
75%

Metro Manila (2013)

  • Crime Thriller Drama Action
  • Looking for a brighter future in metropolitan Manila, Oscar Ramirez and his family leave their miserable life in the rice terraces of Banaue, in the northern Philippines. In the sweltering capital, where all kind of perils lurk in every corner, Oscar catches a lucky break when he is offered a steady work for an armored truck company and the senior officer Ong takes him under his wing.

    Tagalog

    Description

    Seeking a brighter future in megacity Manila| Oscar Ramirez and his family flee their impoverished life in the rice fields of the northern Philippines. But thesweltering capital's bustling intensity quickly overwhelms them| and they fall prey to the rampant manipulations of its hardened locals. Oscar catches a lucky breakwhen he's offered steady work for an armored truck company and gregarious senior officer Ong takes him under his wing. Soon| though| the reality of his work'smortality rate and the murky motives of his new partner force Oscar to confront the perils he faces in his new job and life.

    https://www.imdb.com/title/tt1845838/

    Metro.Manila.2013.BRRip.XviD.MP3-RARBG

    https://imdb.com/title/tt1845838/


    Do you want to help us by donating ?

    Bitcoin: 1GRt3ywthtCm3HbUu6HnnbYe5SUGvRAFi8

    Litecoin: LbPvD6o7SdDah1qQTQmLoNRYgycx6MbCdV


    Suibtitles: ** English hardcoded subs in movie **

    Info:

    Format                                   : AVI

    Format/Info                              : Audio Video Interleave

    Format profile                           : OpenDML

    File size                                : 1.02 GiB

    Duration                                 : 1h 54mn

    Overall bit rate                         : 1 272 Kbps

    Movie name                               : Downloaded from RARBG.COM

    Writing application                      : Lavf55.35.100

    Comment                                  : Downloaded from RARBG.COM

    Video

    ID                                       : 0

    Format                                   : MPEG-4 Visual

    Format profile                           : Simple@L5

    Format settings, BVOP                    : No

    Format settings, QPel                    : No

    Format settings, GMC                     : No warppoints

    Format settings, Matrix                  : Default (H.263)

    Codec ID                                 : XVID

    Codec ID/Hint                            : XviD

    Duration                                 : 1h 54mn

    Bit rate                                 : 999 Kbps

    Width                                    : 720 pixels

    Height                                   : 380 pixels

    Display aspect ratio                     : 1.85:1

    Frame rate                               : 24.000 fps

    Color space                              : YUV

    Chroma subsampling                       : 4:2:0

    Bit depth                                : 8 bits

    Scan type                                : Progressive

    Compression mode                         : Lossy

    Bits/(Pixel*Frame)                       : 0.152

    Stream size                              : 818 MiB (79%)

    Writing library                          : Lavc55.54.100

    Audio

    ID                                       : 1

    Format                                   : MPEG Audio

    Format version                           : Version 1

    Format profile                           : Layer 3

    Mode                                     : Joint stereo

    Codec ID                                 : 55

    Codec ID/Hint                            : MP3

    Duration                                 : 1h 54mn

    Bit rate mode                            : Constant

    Bit rate                                 : 256 Kbps

    Channel(s)                               : 2 channels

    Sampling rate                            : 48.0 KHz

    Compression mode                         : Lossy

    Stream size                              : 210 MiB (20%)

    Alignment                                : Aligned on interleaves

    Interleave, duration                     : 24 ms (0.58 video frame)

    Title                                    : fookin audio

    Screens:

    image

    image

    image


    More at ibit.to
    And ibit.uno
    And ibit.ws

    Reviews

    Comments

    Files

    Metro.Manila.2013.BRRip.XviD.MP3-RARBG.avi 1.0 GB
    RARBG.avi 1.1 MB
    Metro.Manila.2013.BRRip.XviD.MP3-RARBG.nfo 3.3 kB
    RARBG.com.txt 30 B

    Stream

    Downloading Seeding Metro Manila 2013 BRRip XviD MP3-RARBG from to 0 peers.
    of
    0 b/s / ↗0 b/s