• 7
  • 1
  • 4
  • done
Sponsored Downloadondemand_video
  • Me.And.You.And.Everyone.We.Know.2005.iNTERNAL.DVDRip.XviD-SPRiNTER
  • 700 MB
  • Know 2005 iNTERNAL DVDRip XviD SPRiNTER
  • English
  • XVID
71%

Me and You and Everyone We Know (2005)

  • Comedy Drama
  • The feature film debut by artist Miranda July about a various comic situations and plots that intertwine. One story line is about a father who is ending his marriage and the other story is of a video artist (possibly autobiographical of Miranda July, also played by her) who is desperately trying to get her work in a modern art museum. The film won Caméra d'Or at Cannes.

    expand_more
    English

    Description

    A lonely shoe salesman and an eccentric performance artist struggle to connect in this unique take on contemporary life.

    https://www.imdb.com/title/tt0415978/

    Screenshots:

    image

    ARTiCHOKE

    SPRiNTER proudly presents...

    Me.And.You.And.Everyone.We.Know.2005.iNTERNAL.DVDRip.XviD-SPRiNTER

    Date : 2013.07

    URL  : https://www.imdb.com/title/tt0415978

    Subs :

    Release notes

    Enjoy

    News

    We are currently looking for

    • Looking for talented xvid-encoders with time & addiction

    • Suppliers who can provide pre-retail or retail dvds with decent upload

    • 50Mbit dump providers with 1TB free space

    sprinterhush.com

    Greetings

    NTX FiCO HNR CiNEFiLE AEN HUMANiSM TASTE 0MNiDVD

    Details

    Video

    ID                                       : 0

    Format                                   : MPEG-4 Visual

    Format profile                           : Advanced SimpleL5

    Format settings, BVOP                    : 2

    Format settings, QPel                    : No

    Format settings, GMC                     : No warppoints

    Format settings, Matrix                  : Default (H.263

    Codec ID                                 : XVID

    Codec ID/Hint                            : XviD

    Duration                                 : 1h 31mn

    Bit rate                                 : 941 Kbps

    Width                                    : 624 pixels

    Height                                   : 352 pixels

    Display aspect ratio                     : 16:9

    Frame rate                               : 23.976 fps

    Color space                              : YUV

    Chroma subsampling                       : 4:2:0

    Bit depth                                : 8 bits

    Scan type                                : Progressive

    Compression mode                         : Lossy

    Bits/(PixelFrame)                       : 0.179

    Stream size                              : 616 MiB (88

    Writing library                          : XviD 64

    Audio

    ID                                       : 1

    Format                                   : MPEG Audio

    Format version                           : Version 1

    Format profile                           : Layer 3

    Mode                                     : Joint stereo

    Mode extension                           : MS Stereo

    Codec ID                                 : 55

    Codec ID/Hint                            : MP3

    Duration                                 : 1h 31mn

    Bit rate mode                            : Variable

    Bit rate                                 : 115 Kbps

    Nominal bit rate                         : 128 Kbps

    Channel(s)                               : 2 channels

    Sampling rate                            : 48.0 KHz

    Compression mode                         : Lossy

    Stream size                              : 75.3 MiB (11

    Alignment                                : Aligned on interleaves

    Interleave, duration                     : 24 ms (0.58 video frame

    Interleave, preload duration             : 160 ms

    Writing library                          : LAME3.99r

    Encoding settings                        : -m j -V 4 -q 2 -lowpass 17 --abr 128


    More at ibit.to
    And ibit.uno
    And ibit.ws

    Reviews

    Comments

    Files

    Me.And.You.And.Everyone.We.Know.2005.DVDRip.XviD-SPRiNTER.avi 700 MB
    RARBG.com.txt 30 B
    me.and.you.and.everyone.we.know.2005.dvdrip.xvid-sprinter.nfo 6.9 kB
    Me.And.You.And.Everyone.We.Know.2005.iNTERNAL.DVDRip.XviD-SPRiNTER[rarbg]/Me.And.You.And.Everyone.We.Know.2005.iNTERNAL.DVDRip.XviDSPRiNTER[rarbg] -
    Me.And.You.And.Everyone.We.Know.2005.iNTERNAL.DVDRip.XviD-SPRiNTER[rarbg]/Me.And.You.And.Everyone.We.Know.2005.DVDRip.XviDSPRiNTER.avi 700 MB
    Me.And.You.And.Everyone.We.Know.2005.iNTERNAL.DVDRip.XviD-SPRiNTER[rarbg]/RARBG.com.txt 34 B
    Me.And.You.And.Everyone.We.Know.2005.iNTERNAL.DVDRip.XviD-SPRiNTER[rarbg]/me.and.you.and.everyone.we.know.2005.dvdrip.xvidsprinter.nfo 6.9 kB

    Stream

    Downloading Seeding Me.And.You.And.Everyone.We.Know.2005.iNTERNAL.DVDRip.XviD-SPRiNTER from to 0 peers.
    of
    0 b/s / ↗0 b/s