• 0
  • 0
  • 1,124
  • done
Anonymous Downloadondemand_video
Warning! Use a VPN When Downloading Torrents!
Your IP Address is ,
Your Internet Provider can see when you download torrents! Hide your IP ADDRESS with a VPN
We strongly recommend hide.me VPN to hide your torrenting. It's FREE!
DOWNLOAD VPN
70%

Maze Runner: The Death Cure (2018)

  • Action Science Fiction
  • Thomas leads his group of escaped Gladers on their final and most dangerous mission yet. To save their friends, they must break into the legendary Last City, a WCKD-controlled labyrinth that may turn out to be the deadliest maze of all. Anyone who makes it out alive will get answers to the questions the Gladers have been asking since they first arrived in the maze.

    expand_more
    English
  • $62,000,000
  • Description

    In the epic finale to The Maze Runner Saga| Thomas leads his group of escaped Gladers on their final and most dangerous mission yet. To save their friends| they mustbreak into the legendary last city| a WCKD controlled labyrinth that may turn out to be the deadliest maze of all. Anyone who makes it out alive will get the answersto the questions the Gladers have been asking since they first arrived in the maze. Will Thomas and the crew make it out alive? Or will Ava Paige get her way?

    http://imdb.com/title/tt4500922/

    image

    image

    image

    MediaInfo:

    Video

    ID                                       : 1

    Format                                   : AVC

    Format/Info                              : Advanced Video Codec

    Format profile                           : [email protected]

    Format settings                          : CABAC / 5 Ref Frames

    Format settings, CABAC                   : Yes

    Format settings, ReFrames                : 5 frames

    Codec ID                                 : avc1

    Codec ID/Info                            : Advanced Video Coding

    Duration                                 : 2 h 22 min

    Bit rate                                 : 1 100 kb/s

    Width                                    : 720 pixels

    Height                                   : 304 pixels

    Display aspect ratio                     : 2.40:1

    Frame rate mode                          : Constant

    Frame rate                               : 30.000 FPS

    Color space                              : YUV

    Chroma subsampling                       : 4:2:0

    Bit depth                                : 8 bits

    Scan type                                : Progressive

    Bits/(Pixel*Frame)                       : 0.168

    Stream size                              : 1.09 GiB (81%)

    Title                                    : Maze.Runner.The.Death.Cure.2018.KORSUB.HDRip.x264-STUTTERSHIT

    Writing library                          : x264 core 148 r2795M aaa9aa8

    Encoding settings                        : cabac=1 / ref=5 / deblock=1:-1:-1 / analyse=0x3:0x113 / me=umh / subme=9 / psy=1 / psyrd=1.00:0.15 / mixedref=1 / merange=16 / chromame=1 / trellis=2 / 8x8dct=1 / cqm=0 / deadzone=21,11 / fastpskip=1 / chromaqpoffset=-3 / threads=24 / lookaheadthreads=2 / slicedthreads=0 / nr=0 / decimate=1 / interlaced=0 / bluraycompat=0 / constrainedintra=0 / bframes=3 / bpyramid=2 / badapt=2 / bbias=0 / direct=3 / weightb=1 / opengop=0 / weightp=2 / keyint=250 / keyintmin=25 / scenecut=40 / intrarefresh=0 / rclookahead=50 / rc=abr / mbtree=1 / bitrate=1100 / ratetol=1.0 / qcomp=0.60 / qpmin=0 / qpmax=69 / qpstep=4 / ip_ratio=1.40 / aq=1:1.00

    Audio

    ID                                       : 2

    Format                                   : AAC

    Format/Info                              : Advanced Audio Codec

    Format profile                           : LC

    Codec ID                                 : mp4a-40-2

    Duration                                 : 2 h 22 min

    Bit rate mode                            : Constant

    Bit rate                                 : 256 kb/s

    Channel(s)                               : 2 channels

    Channel positions                        : Front: L R

    Sampling rate                            : 44.1 kHz

    Frame rate                               : 43.066 FPS (1024 SPF)

    Compression mode                         : Lossy

    Stream size                              : 260 MiB (19%)

    Title                                    : Maze.Runner.The.Death.Cure.2018.KORSUB.HDRip.x264-STUTTERSHIT

    Default                                  : Yes

    Alternate group                          : 1


    More at ibit.to
    And ibit.uno
    And ibit.am
    And ibit.ws

    Reviews

    Good movie!

    Thank you very much for not splitting this movie into two parts. As a member of _The Death Cure's_ audience I do genuinely appreciate that. I am less appreciative however of the movie itself. It doesn't at all pay off the confusion I suffered at the hands of the franchise. My opinion on the _Maze Runner_ series has been mixed, but I feel certain that this one is the worst, and not only that, but it kind of retroactively made me appreciate the first two less. _Final rating:★★ - Had some things that appeal to me, but a poor finished product._

    Comments

    2 years ago

    From the official website: ''ON DIGITAL APRIL 10 | ON BLU-RAY, DVD & 4K ULTRA HD APRIL 24''

    2 years ago

    thank you, my friend

    2 years ago

    thanks

    2 years ago

    thank you

    2 years ago

    ty my friend

    2 years ago

    thank you STUTTERS***.

    2 years ago

    how do you download?

    anonymous 2 years ago

    Get a client @ utorrent site then install, click on the magnet link open with default torrent app.

    2 years ago

    Thanks for the upload but will wait for Web rip, quality on these aren't so good

    2 years ago

    Usually not a complainer, and I know it's a korsub, but quality was pretty bad on this one, will have to grab the 720p instead.

    Files

    Maze.Runner.The.Death.Cure.2018.KORSUB.HDRip.x264-STUTTERSHIT.mp4 1.4 GB
    RARBG.txt 30 B
    Maze.Runner.The.Death.Cure.2018.KORSUB.HDRip.x264STUTTERSHIT -
    Maze.Runner.The.Death.Cure.2018.KORSUB.HDRip.x264STUTTERSHIT.mp4 1.4 GB

    Stream

    Downloading Seeding Maze.Runner.The.Death.Cure.2018.KORSUB.HDRip.x264-STUTTERSHIT from to 0 peers.
    of
    0 b/s / ↗0 b/s