• 10
  • 0
  • 3,753
  • done
Anonymous Downloadondemand_video
Warning! Use a VPN When Downloading Torrents!
Your IP Address is ,
Your Internet Provider can see when you download torrents! Hide your IP ADDRESS with a VPN
We strongly recommend hide.me VPN to hide your torrenting. It's FREE!
DOWNLOAD VPN
70%

Maze Runner: The Death Cure (2018)

  • Action Science Fiction
  • Thomas leads his group of escaped Gladers on their final and most dangerous mission yet. To save their friends, they must break into the legendary Last City, a WCKD-controlled labyrinth that may turn out to be the deadliest maze of all. Anyone who makes it out alive will get answers to the questions the Gladers have been asking since they first arrived in the maze.

    expand_more
    English
  • $62,000,000
  • Description

    In the epic finale to The Maze Runner Saga| Thomas leads his group of escaped Gladers on their final and most dangerous mission yet. To save their friends| they mustbreak into the legendary last city| a WCKD controlled labyrinth that may turn out to be the deadliest maze of all. Anyone who makes it out alive will get the answersto the questions the Gladers have been asking since they first arrived in the maze. Will Thomas and the crew make it out alive? Or will Ava Paige get her way?

    http://imdb.com/title/tt4500922/

    image

    image

    image

    MediaInfo:

    Video

    ID                                       : 1

    Format                                   : AVC

    Format/Info                              : Advanced Video Codec

    Format profile                           : [email protected]

    Format settings                          : CABAC / 4 Ref Frames

    Format settings, CABAC                   : Yes

    Format settings, ReFrames                : 4 frames

    Codec ID                                 : avc1

    Codec ID/Info                            : Advanced Video Coding

    Duration                                 : 2 h 22 min

    Bit rate                                 : 4 500 kb/s

    Width                                    : 1 920 pixels

    Height                                   : 804 pixels

    Display aspect ratio                     : 2.40:1

    Frame rate mode                          : Constant

    Frame rate                               : 30.000 FPS

    Color space                              : YUV

    Chroma subsampling                       : 4:2:0

    Bit depth                                : 8 bits

    Scan type                                : Progressive

    Bits/(Pixel*Frame)                       : 0.097

    Stream size                              : 4.46 GiB (95%)

    Title                                    : Maze.Runner.The.Death.Cure.2018.1080p.KORSUB.HDRip.x264.AAC2.0-STUTTERSHIT

    Writing library                          : x264 core 148 r2795M aaa9aa8

    Encoding settings                        : cabac=1 / ref=4 / deblock=1:0:0 / analyse=0x3:0x113 / me=hex / subme=8 / psy=1 / psyrd=1.00:0.00 / mixedref=1 / merange=16 / chromame=1 / trellis=2 / 8x8dct=1 / cqm=0 / deadzone=21,11 / fastpskip=1 / chromaqpoffset=-2 / threads=40 / lookaheadthreads=6 / slicedthreads=0 / nr=0 / decimate=1 / interlaced=0 / bluraycompat=0 / constrainedintra=0 / bframes=3 / bpyramid=2 / badapt=1 / bbias=0 / direct=3 / weightb=1 / opengop=0 / weightp=2 / keyint=250 / keyintmin=25 / scenecut=40 / intrarefresh=0 / rclookahead=50 / rc=abr / mbtree=1 / bitrate=4500 / ratetol=1.0 / qcomp=0.60 / qpmin=0 / qpmax=69 / qpstep=4 / ip_ratio=1.40 / aq=1:1.00

    Audio

    ID                                       : 2

    Format                                   : AAC

    Format/Info                              : Advanced Audio Codec

    Format profile                           : LC

    Codec ID                                 : mp4a-40-2

    Duration                                 : 2 h 22 min

    Bit rate mode                            : Constant

    Bit rate                                 : 224 kb/s

    Channel(s)                               : 2 channels

    Channel positions                        : Front: L R

    Sampling rate                            : 44.1 kHz

    Frame rate                               : 43.066 FPS (1024 SPF)

    Compression mode                         : Lossy

    Stream size                              : 228 MiB (5%)

    Title                                    : Maze.Runner.The.Death.Cure.2018.1080p.KORSUB.HDRip.x264.AAC2.0-STUTTERSHIT

    Default                                  : Yes

    Alternate group                          : 1


    More at ibit.to
    And ibit.uno
    And ibit.am
    And ibit.ws

    Reviews

    Good movie!

    Thank you very much for not splitting this movie into two parts. As a member of _The Death Cure's_ audience I do genuinely appreciate that. I am less appreciative however of the movie itself. It doesn't at all pay off the confusion I suffered at the hands of the franchise. My opinion on the _Maze Runner_ series has been mixed, but I feel certain that this one is the worst, and not only that, but it kind of retroactively made me appreciate the first two less. _Final rating:★★ - Had some things that appeal to me, but a poor finished product._

    Comments

    2 years ago

    not the best quality...I would give Video around 3/5

    2 years ago

    Thank you

    2 years ago

    thanks

    2 years ago

    wher's oldfart

    anonymous 2 years ago

    He's taking a nap....leave him alone

    anonymous 2 years ago

    you do understand that oldfart is a release group not just a single person right?

    2 years ago

    People who upload cams should be shot in the face. Just stop it.

    2 years ago

    True its free ad you shouldnt complain but i agree that in this day and age anyone can rip a decent 1080p x264 movie and no have it stutter with bad frames. I honestly dont know how they encoded it so bad for the file size. why bother in the first place. And no i didnt watch it after the first 20 seconds

    2 years ago

    these release hack group name fit them perfectly.  It's stuttered as crap!  Doesthese Korean, don't they know how to rip?

    2 years ago

    Bad video quality around 4/10

    2 years ago

    waiting for better quality release. I hope there still are some guys who do that.

    2 years ago

    Thanks for the upload... but the movie was more stupid than the first one...

    2 years ago

    In the epic finale to The Maze Runner Saga Thomas leads his group of escaped Gladers

    i like it

    2 years ago

    Excellent movie, just watched it.. Many Thanks!

    2 years ago

    I thought it's 1080 but the quality is not good. Thanks anyway.

    2 years ago

    Downloading this for the hell of it. Korean Subs are this shiznit!Daze Runner 3

    anonymous 2 years ago

    Korean Subs aren't the problem. Many fine rips have Korean subs. when people say don't complain on something that is free. It's a valid statement but uploading a garbage rip in the current digital age, I'm perplexed. At least give a disclaimer of hey, sorry this sucks but the best I do.. well.. it's just stutter- s h i 7. I wonder if we are being trolled by their uploads.

    anonymous 2 years ago

    From the official website: ''ON DIGITAL APRIL 10 | ON BLU-RAY, DVD & 4K ULTRA HD APRIL 24'', so it's not even out yet. Is it really a surprise to you that illegal copies of unreleased movies are usually not of perfect quality?

    anonymous 2 years ago

    ive seen plenty of unreleased movies that were better than this junk rip

    2 years ago

    Stiles!

    2 years ago

    Thabnks!)

    anonymous 2 years ago

    Banks

    2 years ago

    It doesnt looks like 1080p

    2 years ago

    Webdl 10 april 2018

    2 years ago

    I didn't know there is a continue part

    2 years ago

    Is audio from Line?

    anonymous 2 years ago

    Not from line

    anonymous 2 years ago

    wireless

    2 years ago

    nice job sir.. thanks and more power

    Files

    Maze.Runner.The.Death.Cure.2018.1080p.KORSUB.HDRip.x264.AAC2.0-STUTTERSHIT.mp4 4.7 GB
    RARBG.txt 30 B
    Maze.Runner.The.Death.Cure.2018.1080p.KORSUB.HDRip.x264.AAC2.0STUTTERSHIT -
    Maze.Runner.The.Death.Cure.2018.1080p.KORSUB.HDRip.x264.AAC2.0STUTTERSHIT.m 4.7 GB

    Stream

    Downloading Seeding Maze.Runner.The.Death.Cure.2018.1080p.KORSUB.HDRip.x264.AAC2.0-STUTTERSHIT from to 0 peers.
    of
    0 b/s / ↗0 b/s