• 0
  • 0
Anonymous Downloadondemand_video
  • Master.Z.Ip.Man.Legacy.2018.720p.WEB-DL.x265.HEVCBay.com.mkv
  • 442 MB
  • g3m696
  • Master Legacy 2018 720p x265 HEVCBay Man WEB com mkv
  • Chinese
  • HEVC/x265
Warning! Use a VPN When Downloading Torrents!
Your IP Address is ,
Your Internet Provider can see when you download torrents! Hide your IP ADDRESS with a VPN
We strongly recommend hide.me VPN to hide your torrenting. It's FREE!
DOWNLOAD VPN
54%

Master Z: Ip Man Legacy (2018)

  • Action
  • Following his defeat by Master Ip, Cheung Tin Chi (Zhang) tries to make a life with his young son in Hong Kong, waiting tables at a bar that caters to expats. But it s not long before the mix of foreigners, money, and triad leaders draw him once again to the fight.

    expand_more

    Description

    [url=hevcbay.com]hevcbay.com[/url]

    There are 2 audio in the source and I don't know which one is the original because they both sound almost the same lol.

    So I included both of them.

    [code]General

    Unique ID                                : 228023760387460146917677722355170092051 (0xAB8BC7607F98176AF0008BE7C0B52413)

    Complete name                            : Master.Z.Ip.Man.Legacy.2018.720p.WEB-DL.x265.HEVCBay.com.mkv

    Format                                   : Matroska

    Format version                           : Version 4

    File size                                : 442 MiB

    Duration                                 : 1 h 47 min

    Overall bit rate                         : 575 kb/s

    Movie name                               : Master.Z.Ip.Man.Legacy.2018.720p.WEB-DL.x265.HEVCBay.com.mkv

    Encoded date                             : UTC 2019-02-10 00:48:01

    Writing application                      : hevcbay

    Writing library                          : hevcbay.com / Lavf58.22.100

    Comment                                  : Encoded by hevcbay.com

    ENCODED-BY                               : hevcbay.com

    Video

    ID                                       : 1

    Format                                   : HEVC

    Format/Info                              : High Efficiency Video Coding

    Format profile                           : [email protected]@Main

    Codec ID                                 : V_MPEGH/ISO/HEVC

    Duration                                 : 1 h 47 min

    Bit rate                                 : 483 kb/s

    Width                                    : 1 280 pixels

    Height                                   : 536 pixels

    Display aspect ratio                     : 2.40:1

    Frame rate mode                          : Constant

    Frame rate                               : 48.000 FPS

    Color space                              : YUV

    Chroma subsampling                       : 4:2:0

    Bit depth                                : 8 bits

    Bits/(Pixel*Frame)                       : 0.015

    Stream size                              : 371 MiB (84%)

    Writing library                          : Lavc58.42.102 libx265

    Default                                  : Yes

    Forced                                   : No

    Color range                              : Limited

    Audio #1

    ID                                       : 2

    Format                                   : AAC LC SBR PS

    Format/Info                              : Advanced Audio Codec Low Complexity with Spectral Band Replication and Parametric Stereo

    Commercial name                          : HE-AACv2

    Format settings                          : NBC

    Codec ID                                 : A_AAC-29

    Duration                                 : 1 h 47 min

    Bit rate                                 : 45.0 kb/s

    Channel(s)                               : 2 channels

    Channel layout                           : C

    Sampling rate                            : 44.1 kHz

    Frame rate                               : 21.533 FPS (2048 SPF)

    Compression mode                         : Lossy

    Delay relative to video                  : -161 ms

    Stream size                              : 34.6 MiB (8%)

    Title                                    : 国语

    Writing library                          : Lavc58.42.102 libfdk_aac

    Default                                  : No

    Forced                                   : No

    Audio #2

    ID                                       : 3

    Format                                   : AAC LC SBR PS

    Format/Info                              : Advanced Audio Codec Low Complexity with Spectral Band Replication and Parametric Stereo

    Commercial name                          : HE-AACv2

    Format settings                          : NBC

    Codec ID                                 : A_AAC-29

    Duration                                 : 1 h 47 min

    Bit rate                                 : 43.8 kb/s

    Channel(s)                               : 2 channels

    Channel layout                           : C

    Sampling rate                            : 44.1 kHz

    Frame rate                               : 21.533 FPS (2048 SPF)

    Compression mode                         : Lossy

    Delay relative to video                  : -161 ms

    Stream size                              : 33.7 MiB (8%)

    Title                                    : 粤语

    Writing library                          : Lavc58.42.102 libfdk_aac

    Default                                  : Yes

    Forced                                   : No

    [/code]

    image

    image

    image

    image

    image


    More at ibit.to
    And ibit.uno
    And ibit.am
    And ibit.ws

    Reviews

    Scooby Reviews. 3/5 Stars. Ip Man Part 3 must be watched first to understand a few details here. This movie has a good cast and some great fighting scenes. Starts off really well but loses focus and grip. There is one major flaw in this movie that i won't talk about because it will lead to a spoiler. The story of this movie could ignite a racial feud if not watched with an open mind. I don't recommend this movie for a watch but if you still want to watch this then you could take a look.

    Comments

    Files

    Master.Z.Ip.Man.Legacy.2018.720p.WEB-DL.x265.HEVCBay.com.mkv 442 MB
    Master.Z.Ip.Man.Legacy.2018.720p.WEBDL.x265.HEVCBay.com.mkv 442 MB

    Stream

    Downloading Seeding Master.Z.Ip.Man.Legacy.2018.720p.WEB-DL.x265.HEVCBay.com.mkv from to 0 peers.
    of
    0 b/s / ↗0 b/s