• 0
  • 0
Sponsored Downloadondemand_video
  • Master.Z.Ip.Man.Legacy.2018.1080p.WEB-DL.x265.HEVCBay.com.mkv
  • 742 MB
  • g3m696
  • Master Legacy 2018 1080p x265 HEVCBay Man WEB com mkv
  • Chinese
  • HEVC/x265
52%

Master Z: Ip Man Legacy (2018)

  • Action
  • After being defeated by Ip Man, Cheung Tin Chi is attempting to keep a low profile. While going about his business, he gets into a fight with a foreigner by the name of Davidson, who is a big boss behind the bar district. Tin Chi fights hard with Wing Chun and earns respect.

    expand_more

    Description

    [url=hevcbay.com]hevcbay.com[/url]

    There are 2 audio in the source and I don't know which one is the original because they both sound almost the same lol.

    So I included both of them.

    [code]General

    Unique ID                                : 131822265176832567168414219395411305098 (0x632C0B76F88C030E6DF08E716091628A)

    Complete name                            : Master.Z.Ip.Man.Legacy.2018.1080p.WEB-DL.x265.HEVCBay.com.mkv

    Format                                   : Matroska

    Format version                           : Version 4

    File size                                : 741 MiB

    Duration                                 : 1 h 47 min

    Overall bit rate                         : 965 kb/s

    Movie name                               : Master.Z.Ip.Man.Legacy.2018.1080p.WEB-DL.x265.HEVCBay.com.mkv

    Encoded date                             : UTC 2019-02-10 01:11:11

    Writing application                      : hevcbay

    Writing library                          : hevcbay.com / Lavf58.22.100

    Comment                                  : Encoded by hevcbay.com

    ENCODED-BY                               : hevcbay.com

    Video

    ID                                       : 1

    Format                                   : HEVC

    Format/Info                              : High Efficiency Video Coding

    Format profile                           : [email protected]@Main

    Codec ID                                 : V_MPEGH/ISO/HEVC

    Duration                                 : 1 h 47 min

    Bit rate                                 : 873 kb/s

    Width                                    : 1 920 pixels

    Height                                   : 804 pixels

    Display aspect ratio                     : 2.40:1

    Frame rate mode                          : Constant

    Frame rate                               : 48.000 FPS

    Color space                              : YUV

    Chroma subsampling                       : 4:2:0

    Bit depth                                : 8 bits

    Bits/(Pixel*Frame)                       : 0.012

    Stream size                              : 671 MiB (90%)

    Writing library                          : Lavc58.42.102 libx265

    Default                                  : Yes

    Forced                                   : No

    Color range                              : Limited

    Audio #1

    ID                                       : 2

    Format                                   : AAC LC SBR PS

    Format/Info                              : Advanced Audio Codec Low Complexity with Spectral Band Replication and Parametric Stereo

    Commercial name                          : HE-AACv2

    Format settings                          : NBC

    Codec ID                                 : A_AAC-29

    Duration                                 : 1 h 47 min

    Bit rate                                 : 45.0 kb/s

    Channel(s)                               : 2 channels

    Channel layout                           : C

    Sampling rate                            : 44.1 kHz

    Frame rate                               : 21.533 FPS (2048 SPF)

    Compression mode                         : Lossy

    Delay relative to video                  : -161 ms

    Stream size                              : 34.6 MiB (5%)

    Title                                    : 国语

    Writing library                          : Lavc58.42.102 libfdk_aac

    Default                                  : No

    Forced                                   : No

    Audio #2

    ID                                       : 3

    Format                                   : AAC LC SBR PS

    Format/Info                              : Advanced Audio Codec Low Complexity with Spectral Band Replication and Parametric Stereo

    Commercial name                          : HE-AACv2

    Format settings                          : NBC

    Codec ID                                 : A_AAC-29

    Duration                                 : 1 h 47 min

    Bit rate                                 : 43.8 kb/s

    Channel(s)                               : 2 channels

    Channel layout                           : C

    Sampling rate                            : 44.1 kHz

    Frame rate                               : 21.533 FPS (2048 SPF)

    Compression mode                         : Lossy

    Delay relative to video                  : -161 ms

    Stream size                              : 33.7 MiB (5%)

    Title                                    : 粤语

    Writing library                          : Lavc58.42.102 libfdk_aac

    Default                                  : Yes

    Forced                                   : No

    [/code]

    image

    image

    image

    image

    image

    image


    More at ibit.to
    And ibit.uno
    And ibit.ws

    Reviews

    Comments

    Files

    Master.Z.Ip.Man.Legacy.2018.1080p.WEB-DL.x265.HEVCBay.com.mkv 741 MB
    Master.Z.Ip.Man.Legacy.2018.1080p.WEBDL.x265.HEVCBay.com.mkv 742 MB

    Stream

    Downloading Seeding Master.Z.Ip.Man.Legacy.2018.1080p.WEB-DL.x265.HEVCBay.com.mkv from to 0 peers.
    of
    0 b/s / ↗0 b/s