• -
  • -
  • done
  • Masakatsu Takagi - The Boy And The Beast (2016) [FLAC] (CD)
  • 790 MB
  • manah3.0
  • Masakatsu Takagi Boy Beast 2016 FLAC
  • Разное (раздачи)

Description

Takagi Masakatsu / The Boy And The Beast

image

Источник : CD

Издание : Limited Edition

Год издания диска : 2016

Жанр : Electronic, Stage & Screen, Soundtrack, Score

Издатель (лейбл) : Milan

Номер по каталогу : M2-36756

Продолжительность : 01:05:57

Наличие сканов в содержимом раздачи : нет

Контейнер : FLAC (*.flac)

Тип рипа : tracks

Разрядность : 16/192

Количество каналов : 2.0

Источник : soulseek

Треклист :

01. The Beast Festivities (2:43)

02. Attractive Force (2:01)

03. Stray Boy (2:29)

04. Horizon (1:59)

05. Cosmos in a Child (1:28)

06. The Beast Sinfonia (5:13)

07. Numerous Vortex (1:59)

08. Awaken Hill (1:35)

09. Pupil (1:30)

10. Boys under the Summer Sky (1:18)

11. Wonderful Adventures (3:36)

12. Days we all have (3:59)

13. A child full of Life (3:07)

14. Another Life (1:12)

15. Free the Wind (2:53)

16. Two Tomorrow (2:34)

17. Lotus in Mud (1:25)

18. Portrait of Solitude (1:39)

19. What sustains you from the Inside (1:23)

20. Beautiful Season (1:20)

21. Darkness (1:28)

22. Cradle Song (1:37)

23. Juvenile Psalms (2:03)

24. Trace of Hollow Dreams (1:58)

25. Gift (3:45)

26. The Whale (2:06)

27. A Sword in your Soul (3:01)

28. My Name (4:37)

Лог проверки качества

`foobar2000 1.4.2 / Dynamic Range Meter 1.1.1
log date: 2020-01-21 01:18:51


Analyzed: Masakatsu Takagi / The Boy And The Beast
DR Peak RMS Duration Track

DR11 -0.03 dB -14.90 dB 2:43 01-The Beast Festivities
DR10 -2.61 dB -20.03 dB 2:01 02-Attractive Force
DR12 0.00 dB -17.01 dB 2:29 03-Stray Boy
DR13 -6.40 dB -23.99 dB 1:59 04-Horizon
DR12 -0.27 dB -17.40 dB 1:28 05-Cosmos in a Child
DR13 0.00 dB -16.98 dB 5:13 06-The Beast Sinfonia
DR13 0.00 dB -17.91 dB 1:59 07-Numerous Vortex
DR13 -6.57 dB -24.42 dB 1:35 08-Awaken Hill
DR12 -7.81 dB -24.62 dB 1:30 09-Pupil
DR12 -0.87 dB -17.37 dB 1:18 10-Boys under the Summer Sky
DR12 -0.07 dB -16.33 dB 3:36 11-Wonderful Adventures
DR12 -0.28 dB -17.95 dB 3:59 12-Days we all have
DR11 -2.71 dB -16.67 dB 3:07 13-A child full of Life
DR10 -10.83 dB -26.08 dB 1:12 14-Another Life
DR12 -3.53 dB -20.59 dB 2:53 15-Free the Wind
DR11 -4.96 dB -21.03 dB 2:34 16-Two Tomorrow
DR12 -3.09 dB -21.46 dB 1:25 17-Lotus in Mud
DR11 -0.19 dB -14.56 dB 1:39 18-Portrait of Solitude
DR11 0.00 dB -13.87 dB 1:23 19-What sustains you from the Inside
DR11 -0.52 dB -15.87 dB 1:20 20-Beautiful Season
DR11 -4.10 dB -19.47 dB 1:28 21-Darkness
DR13 -23.58 dB -41.20 dB 1:37 22-Cradle Song
DR15 -6.16 dB -27.48 dB 2:03 23-Juvenile Psalms
DR10 -1.49 dB -16.67 dB 1:58 24-Trace of Hollow Dreams
DR13 -3.17 dB -20.83 dB 3:45 25-Gift
DR12 -0.18 dB -14.87 dB 2:06 26-The Whale
DR10 0.00 dB -15.62 dB 3:01 27-A Sword in your Soul

DR12 -2.43 dB -18.80 dB 4:37 28-My Name

Number of tracks: 28
Official DR value: DR12

Samplerate: 192000 Hz
Channels: 2
Bits per sample: 16
Bitrate: 1598 kbps
Codec: FLAC
================================================================================ `

Скриншот спектра частот

01. The Beast Festivities (2:43) :
image


More at ibit.to
And ibit.uno
And ibit.am
And ibit.ws

Comments

Files

Masakatsu Takagi - The Boy And The Beast (2016) [FLAC] (CD)01. The Beast Festivities.flac 36 MB
Masakatsu Takagi - The Boy And The Beast (2016) [FLAC] (CD)02. Attractive Force.flac 25 MB
Masakatsu Takagi - The Boy And The Beast (2016) [FLAC] (CD)03. Stray Boy.flac 31 MB
Masakatsu Takagi - The Boy And The Beast (2016) [FLAC] (CD)04. Horizon.flac 18 MB
Masakatsu Takagi - The Boy And The Beast (2016) [FLAC] (CD)05. Cosmos in a Child.flac 18 MB
Masakatsu Takagi - The Boy And The Beast (2016) [FLAC] (CD)06. The Beast Sinfonia.flac 70 MB
Masakatsu Takagi - The Boy And The Beast (2016) [FLAC] (CD)07. Numerous Vortex.flac 25 MB
Masakatsu Takagi - The Boy And The Beast (2016) [FLAC] (CD)08. Awaken Hill.flac 16 MB
Masakatsu Takagi - The Boy And The Beast (2016) [FLAC] (CD)09. Pupil.flac 14 MB
Masakatsu Takagi - The Boy And The Beast (2016) [FLAC] (CD)10. Boys under the Summer Sky.flac 16 MB
Masakatsu Takagi - The Boy And The Beast (2016) [FLAC] (CD)11. Wonderful Adventures.flac 47 MB
Masakatsu Takagi - The Boy And The Beast (2016) [FLAC] (CD)12. Days we all have.flac 44 MB
Masakatsu Takagi - The Boy And The Beast (2016) [FLAC] (CD)13. A child full of Life.flac 42 MB
Masakatsu Takagi - The Boy And The Beast (2016) [FLAC] (CD)14. Another Life.flac 13 MB
Masakatsu Takagi - The Boy And The Beast (2016) [FLAC] (CD)15. Free the Wind.flac 31 MB
Masakatsu Takagi - The Boy And The Beast (2016) [FLAC] (CD)16. Two Tomorrow.flac 26 MB
Masakatsu Takagi - The Boy And The Beast (2016) [FLAC] (CD)17. Lotus in Mud.flac 16 MB
Masakatsu Takagi - The Boy And The Beast (2016) [FLAC] (CD)18. Portrait of Solitude.flac 24 MB
Masakatsu Takagi - The Boy And The Beast (2016) [FLAC] (CD)19. What sustains you from the Inside.flac 21 MB
Masakatsu Takagi - The Boy And The Beast (2016) [FLAC] (CD)20. Beautiful Season.flac 18 MB
Masakatsu Takagi - The Boy And The Beast (2016) [FLAC] (CD)21. Darkness.flac 20 MB
Masakatsu Takagi - The Boy And The Beast (2016) [FLAC] (CD)22. Cradle Song.flac 14 MB
Masakatsu Takagi - The Boy And The Beast (2016) [FLAC] (CD)23. Juvenile Psalms.flac 17 MB
Masakatsu Takagi - The Boy And The Beast (2016) [FLAC] (CD)24. Trace of Hollow Dreams.flac 27 MB
Masakatsu Takagi - The Boy And The Beast (2016) [FLAC] (CD)25. Gift.flac 36 MB
Masakatsu Takagi - The Boy And The Beast (2016) [FLAC] (CD)26. The Whale.flac 31 MB
Masakatsu Takagi - The Boy And The Beast (2016) [FLAC] (CD)27. A Sword in your Soul.flac 37 MB
Masakatsu Takagi - The Boy And The Beast (2016) [FLAC] (CD)28. My Name.flac 56 MB
Masakatsu Takagi - The Boy And The Beast (2016) [FLAC] (CD)cover.jpg 375 kB
Masakatsu Takagi - The Boy And The Beast (2016) [FLAC] (CD)cover1.jpg 168 kB
Masakatsu Takagi - The Boy And The Beast (2016) [FLAC] (CD)foo_dr.txt 2.5 kB
Masakatsu Takagi - The Boy And The Beast (2016) [FLAC] (CD)MI0004027159.jpg 171 kB

Stream

Downloading Seeding Masakatsu Takagi - The Boy And The Beast (2016) [FLAC] (CD) from to 0 peers.
of
0 b/s / ↗0 b/s