• 13
  • 5
  • done
Sponsored Downloadondemand_video
  • Mary Poppins Returns (2018) x 808 (1080p) 5.1 - 2.0 x264 Phun Psyz.mp4
  • 2.5 GB
  • phunpsyz
  • Mary Poppins Returns 2018 808 1080p x264 Phun Psyz mp4
  • English
  • HD 1080p
66%

Mary Poppins Returns (2018)

  • Fantasy Family Comedy
  • In Depression-era London, a now-grown Jane and Michael Banks, along with Michael's three children, are visited by the enigmatic Mary Poppins following a personal loss. Through her unique magical skills, and with the aid of her friend Jack, she helps the family rediscover the joy and wonder missing in their lives.

    expand_more
    English
  • $130,000,000
  • Description

    www.imdb.com/title/tt5028340/

    Decades after her original visit, the magical nanny returns to help the Banks siblings and Michael's children through a difficult time in their lives.

    Source: DRONES

    image

    image

    image

    image

    image

    Format                      : MPEG-4

    Format profile              : Base Media / Version 2

    Codec ID                    : mp42 (isom/iso2/avc1/mp41)

    File size                   : 2.45 GiB

    Duration                    : 2 h 10 min

    Overall bit rate mode       : Variable

    Overall bit rate            : 2 687 kb/s

    Writing application         : HandBrake 1.2.0 2018121700

    Video

    ID                          : 1

    Format                      : AVC

    Format/Info                 : Advanced Video Codec

    Format profile              : [email protected]

    Format settings             : CABAC / 1 Ref Frames

    Format settings, CABAC      : Yes

    Format settings, ReFrames   : 1 frame

    Codec ID                    : avc1

    Codec ID/Info               : Advanced Video Coding

    Duration                    : 2 h 10 min

    Bit rate                    : 2 199 kb/s

    Width                       : 1 920 pixels

    Height                      : 808 pixels

    Display aspect ratio        : 2.40:1

    Frame rate                  : 23.976 (24000/1001) FPS

    Color space                 : YUV

    Chroma subsampling          : 4:2:0

    Bit depth                   : 8 bits

    Scan type                   : Progressive

    Bits/(Pixel*Frame)          : 0.059

    Stream size                 : 2.00 GiB (82%)

    Writing library             : x264 core 157 r2935 545de2f

    Audio #1

    ID                          : 2

    Format                      : AC-3

    Format/Info                 : Audio Coding 3

    Commercial name             : Dolby Digital

    Codec ID                    : ac-3

    Duration                    : 2 h 10 min

    Bit rate mode               : Constant

    Bit rate                    : 320 kb/s

    Channel(s)                  : 6 channels

    Channel layout              : L R C LFE Ls Rs

    Sampling rate               : 48.0 kHz

    Frame rate                  : 31.250 FPS (1536 SPF)

    Bit depth                   : 16 bits

    Compression mode            : Lossy

    Stream size                 : 299 MiB (12%)

    Title                       : Surround

    Language                    : English

    Audio #2

    ID                          : 3

    Format                      : AAC LC

    Format/Info                 : Advanced Audio Codec Low Complexity

    Codec ID                    : mp4a-40-2

    Duration                    : 2 h 10 min

    Bit rate mode               : Constant

    Bit rate                    : 161 kb/s

    Channel(s)                  : 2 channels

    Channel layout              : L R

    Sampling rate               : 48.0 kHz

    Frame rate                  : 46.875 FPS (1024 SPF)

    Compression mode            : Lossy

    Stream size                 : 150 MiB (6%)

    Title                       : Stereo

    Language                    : English

    Text

    Language                    : English

    Default                     : Yes

    Forced                      : No


    More at ibit.to
    And ibit.uno
    And ibit.ws

    Reviews

    The original Mary Poppins was one of my favorite movies when I was a kid and it kind of still is. Thus I was indeed a bit worried when I sat down to watch this one with the kids yesterday. After all there is really so many ways a incompetent writer could have screwed this one up. Especially one with an agenda. Luckily this was not the case and I have to say that I quite liked this movie. Disney actually managed to keep the ambiance of the original movie and it actually felt like a Disney movie from the good old days. The days before every easily offended retard tried to make every movie into a preaching mouth piece for their personal crusade. I think I liked the first half of the movie best. It was an explosion of song, magic and, for me, nostalgia. Apart from the hugely improved technology this movie had available to make the magic bits it actually felt like it could have been made back to back with the original. They really managed to capture the atmosphere from back then. If I had to compare the two directly I would still go with the original as the best one. It was more imaginative and it just felt a bit better two me. The story is a bit of a rehash of the original. They could have come up with something more original. Also, the second movie seemed to fizzle out a bit compared to the first half. I would have liked to see some more Mary Poppins coolness and magic, like we saw in the first half of the movie, instead of, mostly, conventional stuff. Also the take down of the bad guy was a bit underwhelming. Apart from that I think sequel was not bad at all.

    Comments

    Files

    Mary Poppins Returns (2018) x 808 (1080p) 5.1 - 2.0 x264 Phun Psyz.mp4 2.5 GB
    Mary Poppins Returns (2018) x 808 (1080p) 5.1 2.0 x264 Phun Psyz.mp4 2.5 GB

    Stream

    Downloading Seeding Mary Poppins Returns (2018) x 808 (1080p) 5.1 - 2.0 x264 Phun Psyz.mp4 from to 0 peers.
    of
    0 b/s / ↗0 b/s