• 13
  • 2
  • 85
  • done
Anonymous Downloadondemand_video
Warning! Use a VPN When Downloading Torrents!
Your IP Address is ,
Your Internet Provider can see when you download torrents! Hide your IP ADDRESS with a VPN
We strongly recommend hide.me VPN to hide your torrenting. It's FREE!
DOWNLOAD VPN
66%

Mary Poppins Returns (2018)

  • Fantasy Family Comedy
  • In Depression-era London, a now-grown Jane and Michael Banks, along with Michael's three children, are visited by the enigmatic Mary Poppins following a personal loss. Through her unique magical skills, and with the aid of her friend Jack, she helps the family rediscover the joy and wonder missing in their lives.

    expand_more
    English
  • $130,000,000
  • Description

    Language: English

    Genre: Comedy | Family | Fantasy | Musical

    Decades after her original visit, the magical nanny returns to help the Banks siblings and Michael's children through a difficult time in their lives.

    image

    Format : Matroska

    Format version : Version 2

    File size : 1.35 GiB

    Duration : 2h 4mn

    Overall bit rate : 1 548 Kbps

    Encoded date : UTC 2018-12-25 04:55:01

    Writing application : mkvmerge v29.0.0 ('Like It Or Not') 64-bit

    Writing library : libebml v1.3.6 + libmatroska v1.4.9

    Video

    ID : 1

    Format : AVC

    Format/Info : Advanced Video Codec

    Format profile : [email protected]
    Format settings, CABAC : Yes

    Format settings, ReFrames : 4 frames

    Codec ID : V_MPEG4/ISO/AVC

    Duration : 2h 4mn

    Bit rate : 1 321 Kbps

    Width : 1 280 pixels

    Height : 536 pixels

    Display aspect ratio : 2.40:1

    Frame rate mode : Constant

    Frame rate : 29.970 (29970/1000) fps

    Original frame rate : 29.970 (30000/1001) fps

    Color space : YUV

    Chroma subsampling : 4:2:0

    Bit depth : 8 bits

    Scan type : Progressive

    Bits/(Pixel*Frame) : 0.064

    Stream size : 1.15 GiB (85%)

    Title : www.SANET.ST

    Writing library : x264 core 157 r2935 545de2f

    Encoding settings : cabac=1 / ref=3 / deblock=1:0:0 / analyse=0x3:0x113 / me=hex / subme=7 / psy=1 / psyrd=1.00:0.00 / mixedref=1 / merange=16 / chromame=1 / trellis=1 / 8x8dct=1 / cqm=0 / deadzone=21,11 / fastpskip=1 / chromaqpoffset=-2 / threads=12 / lookaheadthreads=2 / slicedthreads=0 / nr=0 / decimate=1 / interlaced=0 / bluraycompat=0 / constrainedintra=0 / bframes=3 / bpyramid=2 / badapt=1 / bbias=0 / direct=1 / weightb=1 / opengop=0 / weightp=2 / keyint=300 / keyintmin=29 / scenecut=40 / intrarefresh=0 / rclookahead=40 / rc=2pass / mbtree=1 / bitrate=1321 / ratetol=1.0 / qcomp=0.60 / qpmin=0 / qpmax=69 / qpstep=4 / cplxblur=20.0 / qblur=0.5 / ip_ratio=1.40 / aq=1:1.00

    Default : Yes

    Forced : No

    Audio

    ID : 2

    Format : AC-3

    Format/Info : Audio Coding 3

    Mode extension : CM (complete main)

    Format settings, Endianness : Big

    Codec ID : A_AC3

    Duration : 2h 4mn

    Bit rate mode : Constant

    Bit rate : 224 Kbps

    Channel(s) : 2 channels

    Channel positions : Front: L R

    Sampling rate : 48.0 KHz

    Frame rate : 31.250 fps (1536 spf)

    Compression mode : Lossy

    Stream size : 200 MiB (14%)

    Title : www.SANET.ST

    Language : English

    Default : Yes

    Forced : No


    More at ibit.to
    And ibit.uno
    And ibit.am
    And ibit.ws

    Reviews

    The original Mary Poppins was one of my favorite movies when I was a kid and it kind of still is. Thus I was indeed a bit worried when I sat down to watch this one with the kids yesterday. After all there is really so many ways a incompetent writer could have screwed this one up. Especially one with an agenda. Luckily this was not the case and I have to say that I quite liked this movie. Disney actually managed to keep the ambiance of the original movie and it actually felt like a Disney movie from the good old days. The days before every easily offended retard tried to make every movie into a preaching mouth piece for their personal crusade. I think I liked the first half of the movie best. It was an explosion of song, magic and, for me, nostalgia. Apart from the hugely improved technology this movie had available to make the magic bits it actually felt like it could have been made back to back with the original. They really managed to capture the atmosphere from back then. If I had to compare the two directly I would still go with the original as the best one. It was more imaginative and it just felt a bit better two me. The story is a bit of a rehash of the original. They could have come up with something more original. Also, the second movie seemed to fizzle out a bit compared to the first half. I would have liked to see some more Mary Poppins coolness and magic, like we saw in the first half of the movie, instead of, mostly, conventional stuff. Also the take down of the bad guy was a bit underwhelming. Apart from that I think sequel was not bad at all.

    Comments

    Files

    Mary Poppins Returns 2018 NEW 720p HDCAM V2 [email protected]/Downloaded from www.SANET.st.txt 200 B
    Mary Poppins Returns 2018 NEW 720p HDCAM V2 [email protected]/Mary Poppins Returns 2018 NEW 720p HDCAM V2 [email protected] 1.3 GB
    Mary Poppins Returns 2018 NEW 720p HDCAM V2/Downloaded from www.SANET.st.txt 223 B
    Mary Poppins Returns 2018 NEW 720p HDCAM V2/ 1.4 GB

    Stream

    Downloading Seeding Mary Poppins Returns 2018 NEW 720p HDCAM V2 [email protected] from to 0 peers.
    of
    0 b/s / ↗0 b/s