• 0
  • 0
Sponsored Downloadondemand_video
  • Mary Poppins Returns 2018 720p BluRay x264 ESub [MW]
  • 1.2 GB
  • moviefreak
  • Mary Poppins Returns 2018 720p BluRay x264 ESub
  • English
  • HD 720p

Description

image

**

General

Format                                   : Matroska

Format version                           : Version 4

File size                                : 1.21 GiB

Duration                                 : 2 h 10 min

Overall bit rate                         : 1 333 kb/s

Video

ID                                       : 1

Format                                   : AVC

Format/Info                              : Advanced Video Codec

Format profile                           : [email protected]

Format settings                          : CABAC / 4 Ref Frames

Format settings, CABAC                   : Yes

Format settings, RefFrames               : 4 frames

Codec ID                                 : V_MPEG4/ISO/AVC

Duration                                 : 2 h 10 min

Bit rate                                 : 1 200 kb/s

Width                                    : 1 280 pixels

Height                                   : 536 pixels

Display aspect ratio                     : 2.40:1

Frame rate mode                          : Constant

Frame rate                               : 23.976 (24000/1001) FPS

Color space                              : YUV

Chroma subsampling                       : 4:2:0

Bit depth                                : 8 bits

Scan type                                : Progressive

Bits/(Pixel*Frame)                       : 0.073

Stream size                              : 1.09 GiB (90%)

Writing library                          : x264 core 157 r2935 545de2f

Audio

ID                                       : 2

Format                                   : AAC LC

Codec ID                                 : A_AAC-2

Duration                                 : 2 h 10 min

Bit rate                                 : 129 kb/s

Channel(s)                               : 2 channels

Channel layout                           : L R

Sampling rate                            : 48.0 kHz

Frame rate                               : 46.875 FPS (1024 SPF)

Compression mode                         : Lossy

Stream size                              : 120 MiB (10%)

Language                                 : English

Default                                  : Yes

Forced                                   : No

Text #1

ID                                       : 3

Format                                   : VobSub

Muxing mode                              : zlib

Codec ID                                 : S_VOBSUB

Codec ID/Info                            : Picture based subtitle format used on DVDs

Duration                                 : 2 h 5 min

Bit rate                                 : 8 291 b/s

Count of elements                        : 2457

Stream size                              : 7.43 MiB (1%)

Language                                 : English

Default                                  : Yes

Forced                                   : No
**

Click To View Image

https://pichub.site/image/wVsCI

https://pichub.site/image/wVZQ8

https://pichub.site/image/wVHG5

https://pichub.site/image/wV97J

https://pichub.site/image/wVTZh

https://pichub.site/image/wVQIj


More at ibit.to
And ibit.uno
And ibit.ws

Comments

Files

Mary Poppins Returns 2018 720p BluRay x264 ESub [MW].mkv 1.2 GB

Stream

Downloading Seeding Mary Poppins Returns 2018 720p BluRay x264 ESub [MW] from to 0 peers.
of
0 b/s / ↗0 b/s