• 6
  • 5
  • done
Anonymous Downloadondemand_video
Warning! Use a VPN When Downloading Torrents!
Your IP Address is ,
Your Internet Provider can see when you download torrents! Hide your IP ADDRESS with a VPN
We strongly recommend hide.me VPN to hide your torrenting. It's FREE!
DOWNLOAD VPN
66%

Mary Poppins Returns (2018)

  • Fantasy Family Comedy
  • In Depression-era London, a now-grown Jane and Michael Banks, along with Michael's three children, are visited by the enigmatic Mary Poppins following a personal loss. Through her unique magical skills, and with the aid of her friend Jack, she helps the family rediscover the joy and wonder missing in their lives.

    expand_more
    English
  • $130,000,000
  • Description

    ** _/! If you do not have a hdr monitor. Do this to reproduce right colors. 

       Download madVR (www.madvr.com/).

       Config: Unzip madVR -> copy madVR folder to C:Program Files -> Run as administrator install.bat -> OK.

       Download Media Player Classic - BE (https://sourceforge.net/projects/mpcbe/).

       Config: MPC-BE -> View -> Options -> Video -> Video Renderer -> Select madVR -> OK.

    /! Original 4K releases with much noise, most are old movies. With much noise more bitrate is needed to maintain the quality and final file size are bigger. Releases with 60fps are bigger too._**

     

    ** Release info: **

    **>Encoded by: [WMAN-LorD]

    HDR working!

    Subtitles.

    Chapters.

    Cover.

    SSIM:  

    PSNR: 

    Source: Blu-ray Original 4k HDR
    **

    image

    image 

    image 

    image 

    image 

    image

    `

    General

    Unique ID                   : 258648041714800251042701690447771130356 (0xC295CD0521E986B7537D2CA3C6F6D9F4)

    Complete name               : Mary.Poppins.Returns.2018.2160p.UHD.HDR.BluRay.(x265 10bit DD5.1).[WMAN-LorD].mkv

    Format                      : Matroska

    Format version              : Version 4

    File size                   : 5.19 GiB

    Duration                    : 2 h 10 min

    Overall bit rate            : 5 699 kb/s

    Movie name                  : Mary Poppins Returns (2018) WMAN-LorD

    Encoded date                : UTC 2019-03-11 20:20:29

    Writing application         : mkvmerge v29.0.0 ('Like It Or Not') 64-bit

    Writing library             : libebml v1.3.6 + libmatroska v1.4.9

    Cover                       : Yes

    Attachments                 : cover.jpg

    IMDB                        : tt5028340

    TMDB                        : movie/400650

    Video

    ID                          : 1

    Format                      : HEVC

    Format/Info                 : High Efficiency Video Coding

    Format profile              : Main [email protected]@Main

    Codec ID                    : V_MPEGH/ISO/HEVC

    Duration                    : 2 h 10 min

    Bit rate                    : 5 004 kb/s

    Width                       : 3 840 pixels

    Height                      : 2 160 pixels

    Display aspect ratio        : 16:9

    Frame rate mode             : Constant

    Frame rate                  : 23.976 (24000/1001) FPS

    Color space                 : YUV

    Chroma subsampling          : 4:2:0

    Bit depth                   : 10 bits

    Bits/(Pixel*Frame)          : 0.025

    Stream size                 : 4.56 GiB (88%)

    Title                       : [WMAN-LorD]

    Language                    : English

    Default                     : Yes

    Forced                      : No

    Color range                 : Limited

    Color primaries             : BT.2020

    Transfer characteristics    : PQ

    Matrix coefficients         : BT.2020 non-constant

    Audio

    ID                          : 2

    Format                      : AC-3

    Format/Info                 : Audio Coding 3

    Commercial name             : Dolby Digital

    Codec ID                    : A_AC3

    Duration                    : 2 h 10 min

    Bit rate mode               : Constant

    Bit rate                    : 640 kb/s

    Channel(s)                  : 6 channels

    Channel layout              : L R C LFE Ls Rs

    Sampling rate               : 48.0 kHz

    Frame rate                  : 31.250 FPS (1536 SPF)

    Bit depth                   : 16 bits

    Compression mode            : Lossy

    Stream size                 : 597 MiB (11%)

    Title                       : Compatibility Track / Dolby Digital Audio / 5.1 / 48 kHz / 640 kbps

    Language                    : English

    Service kind                : Complete Main

    Default                     : No

    Forced                      : No

    Text #1

    ID                          : 3

    Format                      : UTF-8

    Codec ID                    : S_TEXT/UTF8

    Codec ID/Info               : UTF-8 Plain Text

    Duration                    : 2 h 2 min

    Bit rate                    : 69 b/s

    Count of elements           : 1668

    Stream size                 : 62.2 KiB (0%)

    Title                       : Portuguese Brazil

    Language                    : Portuguese

    Default                     : Yes

    Forced                      : No

    Text #2

    ID                          : 4

    Format                      : PGS

    Muxing mode                 : zlib

    Codec ID                    : S_HDMV/PGS

    Codec ID/Info               : Picture based subtitle format used on BDs/HD-DVDs

    Duration                    : 2 h 5 min

    Bit rate                    : 53.1 kb/s

    Count of elements           : 4918

    Stream size                 : 47.6 MiB (1%)

    Title                       : SDH

    Language                    : English

    Default                     : No

    Forced                      : No

    Text #3

    ID                          : 5

    Format                      : PGS

    Muxing mode                 : zlib

    Codec ID                    : S_HDMV/PGS

    Codec ID/Info               : Picture based subtitle format used on BDs/HD-DVDs

    Duration                    : 2 h 2 min

    Bit rate                    : 45.9 kb/s

    Count of elements           : 3998

    Stream size                 : 40.1 MiB (1%)

    Language                    : French

    Default                     : No

    Forced                      : No

    Text #4

    ID                          : 6

    Format                      : PGS

    Muxing mode                 : zlib

    Codec ID                    : S_HDMV/PGS

    Codec ID/Info               : Picture based subtitle format used on BDs/HD-DVDs

    Duration                    : 2 h 2 min

    Bit rate                    : 22.8 kb/s

    Count of elements           : 3938

    Stream size                 : 20.0 MiB (0%)

    Language                    : Korean

    Default                     : No

    Forced                      : No

    Text #5

    ID                          : 7

    Format                      : PGS

    Muxing mode                 : zlib

    Codec ID                    : S_HDMV/PGS

    Codec ID/Info               : Picture based subtitle format used on BDs/HD-DVDs

    Duration                    : 2 h 2 min

    Bit rate                    : 44.3 kb/s

    Count of elements           : 3938

    Stream size                 : 38.8 MiB (1%)

    Title                       : Latin American

    Language                    : Spanish

    Default                     : No

    Forced                      : No

    Menu

    00:00:00.000                : en:Opening

    00:06:38.064                : en:The Wolves at the Door

    00:15:22.046                : en:A Conversation

    00:19:18.031                : en:Mary Poppins Arrives

    00:26:01.893                : en:"Can You Imagine That?"

    00:33:10.405                : en:Searching for the Shares

    00:39:05.426                : en:The Royal Doulton Bowl

    00:46:11.351                : en:"A Cover is Not the Book"

    00:57:34.033                : en:"The Place Where Lost Things Go"

    01:06:14.387                : en:"Turning Turtle"

    01:15:55.801                : en:Not the Quickest Way to the Bank

    01:21:51.364                : en:"Trip a Little Light Fantastic"

    01:32:18.199                : en:Nothing's Gone Forever

    01:36:29.825                : en:Everything Is Possible

    01:53:58.331                : en:"Nowhere to Go but Up"

    02:03:47.962                : en:End Credits

    `

    image


    More at ibit.to
    And ibit.uno
    And ibit.ws

    Reviews

    The original Mary Poppins was one of my favorite movies when I was a kid and it kind of still is. Thus I was indeed a bit worried when I sat down to watch this one with the kids yesterday. After all there is really so many ways a incompetent writer could have screwed this one up. Especially one with an agenda. Luckily this was not the case and I have to say that I quite liked this movie. Disney actually managed to keep the ambiance of the original movie and it actually felt like a Disney movie from the good old days. The days before every easily offended retard tried to make every movie into a preaching mouth piece for their personal crusade. I think I liked the first half of the movie best. It was an explosion of song, magic and, for me, nostalgia. Apart from the hugely improved technology this movie had available to make the magic bits it actually felt like it could have been made back to back with the original. They really managed to capture the atmosphere from back then. If I had to compare the two directly I would still go with the original as the best one. It was more imaginative and it just felt a bit better two me. The story is a bit of a rehash of the original. They could have come up with something more original. Also, the second movie seemed to fizzle out a bit compared to the first half. I would have liked to see some more Mary Poppins coolness and magic, like we saw in the first half of the movie, instead of, mostly, conventional stuff. Also the take down of the bad guy was a bit underwhelming. Apart from that I think sequel was not bad at all.

    Comments

    8 months ago

    Another one that fell from the sky, a beautiful classic with the quality of always. Good movie, everyone! ! !

    Files

    Mary.Poppins.Returns.2018.2160p.UHD.HDR.BluRay.(x265 10bit DD5.1).[WMAN-LorD].mkv 5.2 GB
    Mary.Poppins.Returns.2018.2160p.UHD.HDR.BluRay.(x265 10bit DD5.1).[WMANLorD].mkv 5.2 GB

    Stream

    Downloading Seeding Mary.Poppins.Returns.2018.2160p.UHD.HDR.BluRay.(x265 10bit DD5.1).[WMAN-LorD].mkv from to 0 peers.
    of
    0 b/s / ↗0 b/s