• 2
  • 0
  • done
Anonymous Downloadondemand_video
  • Mary.Poppins.Returns.2018.1080p.BDRip.mkv
  • 11 GB
  • shelena
  • Mary Poppins Returns 2018 1080p BDRip mkv
  • HD Video
Warning! Use a VPN When Downloading Torrents!
Your IP Address is ,
Your Internet Provider can see when you download torrents! Hide your IP ADDRESS with a VPN
We strongly recommend hide.me VPN to hide your torrenting. It's FREE!
DOWNLOAD VPN

Description

Мэри Поппинс возвращается / Mary Poppins Returns

image

Страна : США

Жанр : мюзикл, фэнтези, комедия, семейный

Год выпуска : 2018

Продолжительность : 02:10:29

Перевод : Профессиональный (многоголосый закадровый) HDRezka Studio

Субтитры : русские (встроенные, отключаемые)

Оригинальная аудиодорожка : английский

Режиссер : Роб Маршалл / Rob Marshall

В ролях : Эмили Блант, Мэрил Стрип, Колин Фёрт, Лин-Мануэль Миранда, Бен Уишоу, Эмили Мортимер, Пикси Дейвис, Натаниэль Сале, Джоэль Доусон, Джули Уолтерс и др.

Описание : Взрослые Джейн и Майкл Бэнкс переживают не лучшие времена. В стране царит кризис, а вдобавок ко всему у героя умирает жена, оставив на его попечении троих детей. Но отчаиваться не стоит, ведь самая известная няня и леди Совершенство всегда приходит в нужный момент. Мэри Поппинс возвращается и приносит в семью Бэнксов радость и счастье, которых им так не хватало.
Младшим членам семьи, недавно перенесшим тяжелую потерю, придется познакомиться с необычными персонажами – фонарщиком Джеком и кузиной Мэри Топси Тёрви, а также на собственном опыте убедиться в уникальных магических способностях мисс Поппинс.

Доп. информация : Сюжет основан на произведениях Памелы Линдон Трэверс (1899-1996).

Слоган : «In a place we hold dear, where wonder once lived... but soon from above, a new story begins».

Бюджет : $130 000 000

Премьера (мир) : 29 ноября 2018

Премьера (РФ) : 3 января 2019, «WDSSPR»

Цифровой релиз : 5 апреля 2019, «Уолт Дисней Компани СНГ»

Возраст : 6+

Рейтинг MPAA : PG

Рейтинг КиноПоиск : 6.700

Рейтинг IMDb : 7.00

Сэмпл : https://yadi.sk/i/f9R8yYk6a3JpQg

Тип релиза : BDRip 1080p

Контейнер : MKV

Видео : MPEG-4 AVC, 9285 Кбит/с, 1920x808, 23.976 кадр/с, 8 бит

Аудио : Русский (AC3, 2 ch, 192 Кбит/с)

Аудио 2 : Aнглийский (DTS, 6 ch, 1509 Кбит/с)

Формат субтитров : softsub (SRT)

MediaInfo

`Уникальный идентификатор : 247584963031488440310658158179306716279 (0xBA432120E5E951DC274174CD99B03C77)
Полное имя : D:TorrentsMary.Poppins.Returns.2018.1080p.BDRip.mkv
Формат : Matroska
Версия формата : Version 4
Размер файла : 10,0 Гбайт
Продолжительность : 2 ч. 10 м.
Общий поток : 11,0 Мбит/сек
Дата кодирования : UTC 2019-03-28 07:40:54
Программа кодирования : mkvmerge v32.0.0 ('Astral Progressions') 64-bit
Библиотека кодирования : libebml v1.3.7 + libmatroska v1.5.0

Видео
Идентификатор : 1
Формат : AVC
Формат/Информация : Advanced Video Codec
Профиль формата : [email protected]
Настройки формата : CABAC / 5 Ref Frames
Параметр CABAC формата : Да
Параметр RefFrames формата : 5 кадров
Идентификатор кодека : VMPEG4/ISO/AVC
Продолжительность : 2 ч. 10 м.
Битрейт : 9285 Кбит/сек
Ширина : 1920 пикселей
Высота : 808 пикселей
Соотношение сторон : 2,40:1
Режим частоты кадров : Постоянный
Частота кадров : 23,976 кадра/сек
Цветовое пространство : YUV
Субдискретизация насыщенности : 4:2:0
Битовая глубина : 8 бит
Тип развёртки : Прогрессивная
Бит/(Пиксели*Кадры) : 0.250
Размер потока : 8,27 Гбайт (83%)
Библиотека кодирования : x264 core 157 r2935 545de2f
Настройки программы : cabac=1 / ref=5 / deblock=1:-3:-3 / analyse=0x3:0x113 / me=umh / subme=8 / psy=1 / psy
rd=1.00:0.00 / mixedref=1 / merange=16 / chromame=1 / trellis=1 / 8x8dct=1 / cqm=0 / deadzone=21,11 / fastpskip=1 / chromaqpoffset=-2 / threads=25 / lookaheadthreads=4 / slicedthreads=0 / nr=0 / decimate=1 / interlaced=0 / bluraycompat=0 / constrainedintra=0 / bframes=3 / bpyramid=2 / badapt=1 / bbias=0 / direct=3 / weightb=1 / opengop=0 / weightp=2 / keyint=250 / keyintmin=23 / scenecut=40 / intrarefresh=0 / rclookahead=50 / rc=2pass / mbtree=1 / bitrate=9285 / ratetol=1.0 / qcomp=0.60 / qpmin=0 / qpmax=69 / qpstep=4 / cplxblur=20.0 / qblur=0.5 / ipratio=1.40 / aq=1:1.00
Язык : English
Default : Да
Forced : Нет

Аудио #1
Идентификатор : 2
Формат : DTS
Формат/Информация : Digital Theater Systems
Идентификатор кодека : A_DTS
Продолжительность : 2 ч. 10 м.
Вид битрейта : Постоянный
Битрейт : 1509 Кбит/сек
Каналы : 6 каналов
Channel layout : C L R Ls Rs LFE
Частота : 48,0 КГц
Частота кадров : 93,750 кадра/сек (512 SPF)
Битовая глубина : 24 бит
Метод сжатия : С потерями
Размер потока : 1,38 Гбайт (14%)
Заголовок : dts
Язык : English
Default : Да
Forced : Нет

Аудио #2
Идентификатор : 3
Формат : AC-3
Формат/Информация : Audio Coding 3
Коммерческое название : Dolby Digital
Идентификатор кодека : A_AC3
Продолжительность : 2 ч. 10 м.
Вид битрейта : Постоянный
Битрейт : 192 Кбит/сек
Каналы : 2 канала
Channel layout : L R
Частота : 48,0 КГц
Частота кадров : 31,250 кадров/сек (1536 SPF)
Битовая глубина : 16 бит
Метод сжатия : С потерями
Размер потока : 179 Мбайт (2%)
Заголовок : rus
ServiceKind/String : Complete Main
Default : Нет
Forced : Нет

Текст
Идентификатор : 4
Формат : UTF-8
Идентификатор кодека : S_TEXT/UTF8
Идентификатор кодека/Информация : UTF-8 Plain Text
Заголовок : rus
Default : Да
Forced : Нет

Меню
00:00:00.000 : en:00:00:00.000
00:06:38.064 : en:00:06:38.064
00:15:22.046 : en:00:15:22.046
00:19:18.032 : en:00:19:18.032
00:26:01.894 : en:00:26:01.894
00:33:10.405 : en:00:33:10.405
00:39:05.426 : en:00:39:05.426
00:46:11.352 : en:00:46:11.352
00:57:34.034 : en:00:57:34.034
01:06:14.387 : en:01:06:14.387
01:15:55.801 : en:01:15:55.801
01:21:51.365 : en:01:21:51.365
01:32:18.199 : en:01:32:18.199
01:36:29.826 : en:01:36:29.826
01:53:58.331 : en:01:53:58.331
02:03:47.962 : en:02:03:47.962 `

Скриншоты

image image image image image


More at ibit.to
And ibit.uno
And ibit.am
And ibit.ws

Comments

8 months ago

Спасибо А размер по-меньше будет? Так же с оригинальной дорожкой и субтитрами?

8 months ago

Nmaska, пожалуйста У меня - нет, но кто-то другой наверное выложит.

Files

Mary.Poppins.Returns.2018.1080p.BDRip.mkv 11 GB

Stream

Downloading Seeding Mary.Poppins.Returns.2018.1080p.BDRip.mkv from to 0 peers.
of
0 b/s / ↗0 b/s