• 1
  • 1
  • 142
Sponsored Downloadondemand_video
50%

Marvel's Runaways: Past Life(2018)

  • 2 8
  • Action & Adventure Crime Drama Sci-Fi & Fantasy
  • In the aftermath of the battle against Jonah, Karolina searches for answers about Jonah and the others help Alex and Livvie try to prove Darius’s innocence in Destiny’s murder. But Livvie’s curiosity just might catch up with her.

    expand_more
    English

    Description

    image

    imageimageimageimage

    Media Information

    Unique ID : 258017373478500223936633613482435473555 (0xC21C56ACE14521D877B91E44C876F093)

    Complete name : Marvels Runaways S02E08 Past Life AMZN WEBRip 1080p x265 AAC 5.1 D0ct0rLew[SEV].mkv

    Format : Matroska

    Format version : Version 4

    File size : 1.04 GiB

    Duration : 43 min 51 s

    Overall bit rate : 3 392 kb/s

    Encoded date : UTC 2018-12-28 04:17:00

    Writing application : mkvmerge v29.0.0 ('Like It Or Not') 64-bit

    Writing library : libebml v1.3.6 + libmatroska v1.4.9

    Video

    ID : 3

    Format : HEVC

    Format/Info : High Efficiency Video Coding

    Format profile : Main [email protected]@Main

    Codec ID : V_MPEGH/ISO/HEVC

    Duration : 43 min 51 s

    Bit rate : 2 942 kb/s

    Width : 1 920 pixels

    Height : 1 080 pixels

    Display aspect ratio : 16:9

    Frame rate mode : Constant

    Frame rate : 23.976 (24000/1001) FPS

    Color space : YUV

    Chroma subsampling : 4:2:0

    Bit depth : 10 bits

    Bits/(Pixel*Frame) : 0.059

    Stream size : 923 MiB (87%)

    Writing library : x265 2.9+16-1f44f1f1623d:[Windows][MSVC 1920][64 bit] 10bit

    Encoding settings : cpuid=1049583 / frame-threads=3 / numa-pools=8 / wpp / no-pmode / no-pme / no-psnr / no-ssim / log-level=2 / input-csp=1 / input-res=1920x1080 / interlace=0 / total-frames=63096 / level-idc=0 / high-tier=1 / uhd-bd=0 / ref=4 / no-allow-non-conformance / no-repeat-headers / annexb / no-aud / no-hrd / info / hash=0 / no-temporal-layers / open-gop / min-keyint=23 / keyint=250 / gop-lookahead=0 / bframes=4 / b-adapt=2 / b-pyramid / bframe-bias=0 / rc-lookahead=80 / lookahead-slices=4 / scenecut=40 / radl=0 / no-splice / no-intra-refresh / ctu=64 / min-cu-size=8 / no-rect / no-amp / max-tu-size=32 / tu-inter-depth=1 / tu-intra-depth=1 / limit-tu=0 / rdoq-level=2 / dynamic-rd=0.00 / no-ssim-rd / signhide / no-tskip / nr-intra=0 / nr-inter=0 / no-constrained-intra / no-strong-intra-smoothing / max-merge=3 / limit-refs=3 / limit-modes / me=3 / subme=7 / merange=92 / temporal-mvp / weightp / no-weightb / no-analyze-src-pics / deblock=3:3 / sao / no-sao-non-deblock / rd=4 / no-early-skip / rskip / no-fast-intra / no-tskip-fast / no-cu-lossless / no-b-intra / no-splitrd-skip / rdpenalty=0 / psy-rd=1.00 / psy-rdoq=1.00 / no-rd-refine / no-lossless / cbqpoffs=0 / crqpoffs=0 / rc=crf / crf=20.5 / qcomp=0.55 / qpstep=4 / stats-write=0 / stats-read=0 / ipratio=1.40 / pbratio=1.30 / aq-mode=3 / aq-strength=0.80 / cutree / zone-count=0 / no-strict-cbr / qg-size=32 / no-rc-grain / qpmax=69 / qpmin=0 / no-const-vbv / sar=0 / overscan=0 / videoformat=5 / range=0 / colorprim=2 / transfer=2 / colormatrix=2 / chromaloc=0 / display-window=0 / max-cll=0,0 / min-luma=0 / max-luma=1023 / log2-max-poc-lsb=8 / vui-timing-info / vui-hrd-info / slices=1 / no-opt-qp-pps / no-opt-ref-list-length-pps / no-multi-pass-opt-rps / scenecut-bias=0.05 / no-opt-cu-delta-qp / no-aq-motion / no-hdr / no-hdr-opt / no-dhdr10-opt / no-idr-recovery-sei / analysis-reuse-level=5 / scale-factor=0 / refine-intra=0 / refine-inter=0 / refine-mv=0 / refine-ctu-distortion=0 / no-limit-sao / ctu-info=0 / no-lowpass-dct / refine-mv-type=0 / copy-pic=1 / max-ausize-factor=1.0 / no-dynamic-refine / no-single-sei

    Default : Yes

    Forced : No

    Audio

    ID : 2

    Format : AAC LC

    Format/Info : Advanced Audio Codec Low Complexity

    Codec ID : A_AAC-2

    Duration : 43 min 51 s

    Bit rate : 448 kb/s

    Channel(s) : 6 channels

    Channel layout : C L R Ls Rs LFE

    Sampling rate : 48.0 kHz

    Frame rate : 46.875 FPS (1024 SPF)

    Compression mode : Lossy

    Delay relative to video : 9 ms

    Stream size : 141 MiB (13%)

    Language : English

    Default : Yes

    Forced : No

    Text

    ID : 1

    Format : UTF-8

    Codec ID : S_TEXT/UTF8

    Codec ID/Info : UTF-8 Plain Text

    Duration : 43 min 30 s

    Bit rate : 79 b/s

    Count of elements : 647

    Stream size : 25.4 KiB (0%)

    Language : English

    Default : Yes

    Forced : No

    We have no issue with individuals posting or re-uploading our torrents on a platform we aren't on. However, if this is something you'd like to do, please do so in a 'as-is' format. We ask that you do not create a new torrent, include all descriptions you see above including the SEV logo, tags, notes and screenshots. If you'd like to become a permanent poster on a website we don't post to, feel free to get in contact with a Sublime Encoded Video member.

    We are recruiting/training new members for SEV & seedbox providers as well as people to help out with subtitles.
    As you already know, we deliver quality, so you know the standard.
    If you're interested, feel free to contact any of the team members.


    More at ibit.to
    And ibit.uno
    And ibit.ws

    Reviews

    Comments

    Files

    Marvels Runaways S02E08 Past Life AMZN WEBRip 1080p x265 AAC 5.1 D0ct0rLew[SEV].mkv 1.0 GB

    Stream

    Downloading Seeding Marvels Runaways S02E08 Past Life AMZN WEBRip 1080p x265 AAC 5.1 D0ct0rLew[SEV].mkv from to 0 peers.
    of
    0 b/s / ↗0 b/s